<?xml version="1.0" standalone="no"?>
<!DOCTYPE svg PUBLIC "-//W3C//DTD SVG 1.1//EN" "http://www.w3.org/Graphics/SVG/1.1/DTD/svg11.dtd" >
<svg xmlns="http://www.w3.org/2000/svg">
<metadata></metadata>
<defs>
<font id="cabinbold_italic" horiz-adv-x="1243" >
<font-face units-per-em="2048" ascent="1638" descent="-410" />
<missing-glyph horiz-adv-x="460" />
<glyph horiz-adv-x="2048" />
<glyph horiz-adv-x="2048" />
<glyph unicode="&#xd;" horiz-adv-x="2048" />
<glyph unicode=" "  horiz-adv-x="460" />
<glyph unicode="&#x09;" horiz-adv-x="460" />
<glyph unicode="&#xa0;" horiz-adv-x="460" />
<glyph unicode="!" horiz-adv-x="507" d="M18 0l45 254h256l-45 -254h-256zM133 410l162 1126h244l-234 -1126h-172z" />
<glyph unicode="&#x22;" horiz-adv-x="792" d="M170 922l70 614h252l-148 -614h-174zM553 922l70 614h254l-148 -614h-176z" />
<glyph unicode="#" horiz-adv-x="1409" d="M23 -23l243 455h-229l129 213h219l107 203h-238l100 201h246l213 385h191l-209 -385h217l209 385h190l-209 -385h217l-104 -201h-223l-107 -203h246l-135 -213h-228l-245 -455h-193l244 455h-213l-250 -455h-188zM573 645h220l110 203h-219z" />
<glyph unicode="$" horiz-adv-x="1046" d="M37 244l80 260q46 -55 136 -92t212 -37q110 0 164.5 29t54.5 94q0 37 -29.5 66.5t-77.5 49.5t-105 39.5t-114.5 43t-105.5 52.5t-77.5 76t-29.5 107q0 44 13.5 88.5t45.5 90.5t78.5 83.5t119.5 65t163 36.5l13 236h215l-74 -236q91 -6 175.5 -29.5t123.5 -49.5l-64 -232 q-80 47 -166 77t-155 30q-236 0 -236 -111q0 -35 31 -60.5t80 -43t108.5 -35t119.5 -41.5t109 -56t80 -86t31 -124q0 -27 -3.5 -53.5t-15.5 -61.5t-31 -66t-53 -63.5t-78 -57t-109.5 -43.5t-145.5 -26l-8 -230h-217l72 228q-110 6 -197.5 28.5t-132.5 53.5z" />
<glyph unicode="%" horiz-adv-x="1673" d="M145 975q0 202 114 334.5t269 132.5q110 0 175 -78.5t65 -212.5q0 -199 -109.5 -332t-273.5 -133q-113 0 -176.5 78.5t-63.5 210.5zM182 -25l1086 1459h215l-1088 -1459h-213zM311 989q0 -76 28 -113.5t75 -37.5q85 0 137.5 77.5t52.5 219.5q0 79 -29 119t-75 40 q-71 0 -130 -80.5t-59 -224.5zM946 270q0 202 113 334.5t268 132.5q110 0 175 -78.5t65 -212.5q0 -199 -109.5 -331.5t-273.5 -132.5q-111 0 -174.5 78t-63.5 210zM1114 285q0 -77 27 -114.5t73 -37.5q81 0 135 78t54 219q0 79 -29.5 119.5t-73.5 40.5q-71 0 -128.5 -80.5 t-57.5 -224.5z" />
<glyph unicode="&#x26;" horiz-adv-x="1239" d="M18 287q0 63 19 121.5t47 103.5t73.5 91t85 78t93.5 71q-92 168 -92 299q0 88 41 163t108 123.5t149 75.5t167 27q132 0 203 -65.5t71 -180.5q0 -60 -21.5 -115.5t-50.5 -95t-80 -83.5t-87.5 -69t-95.5 -64q-2 -1 -3.5 -2t-3.5 -2.5t-4 -2.5l201 -328q21 70 61 289h246 q-43 -277 -174 -475l168 -246h-299l-45 70q-155 -119 -379 -119q-200 0 -299 94t-99 242zM291 324q0 -179 194 -179q121 0 207 70l-260 399q-141 -144 -141 -290zM498 1063q0 -74 55 -178q48 35 78 59.5t61 58t45.5 69t14.5 75.5q0 49 -22 69.5t-66 20.5q-71 0 -118.5 -46 t-47.5 -128z" />
<glyph unicode="'" horiz-adv-x="407" d="M172 922l68 614h252l-148 -614h-172z" />
<glyph unicode="(" horiz-adv-x="571" d="M57 266q0 353 92.5 661t305.5 609h233q-91 -128 -159 -248t-129.5 -270t-93.5 -324.5t-32 -365.5q0 -172 26.5 -331t68.5 -276h-234q-78 221 -78 545z" />
<glyph unicode=")" horiz-adv-x="571" d="M-109 -279q91 128 159 248t129.5 270.5t93.5 325t32 365.5q0 345 -94 606h233q78 -221 78 -545q0 -354 -92 -662t-305 -608h-234z" />
<glyph unicode="*" horiz-adv-x="892" d="M180 1264l129 168l219 -220l-20 322h201l-134 -322l297 220l70 -168l-330 -103l205 -184l-166 -133l-110 280l-215 -286l-119 133l274 186z" />
<glyph unicode="+" horiz-adv-x="907" d="M66 471l34 193h269l47 262h188l-47 -262h270l-34 -193h-269l-47 -262h-188l45 262h-268z" />
<glyph unicode="," horiz-adv-x="479" d="M-27 -197l97 177l-62 20l47 266h250l-45 -266l-240 -225z" />
<glyph unicode="-" horiz-adv-x="835" d="M90 471l35 193h608l-33 -193h-610z" />
<glyph unicode="." horiz-adv-x="481" d="M8 0l47 266h254l-47 -266h-254z" />
<glyph unicode="/" horiz-adv-x="1101" d="M-94 -174l997 1608h275l-998 -1608h-274z" />
<glyph unicode="0" horiz-adv-x="1415" d="M127 545q0 189 62.5 361t164.5 292.5t236 192t274 71.5q212 0 335.5 -159.5t123.5 -434.5q0 -244 -97 -450.5t-264.5 -326.5t-367.5 -120q-225 0 -346 154t-121 420zM389 569q0 -362 246 -362q87 0 165.5 45t137.5 125t94 200t35 261q0 202 -67 297.5t-175 95.5 q-60 0 -121 -28t-117.5 -85t-100.5 -135t-70.5 -185.5t-26.5 -228.5z" />
<glyph unicode="1" horiz-adv-x="749" d="M182 0l189 1063q-83 -57 -183 -74l19 221q67 14 159.5 83.5t129.5 140.5h200l-254 -1434h-260z" />
<glyph unicode="2" horiz-adv-x="1062" d="M-12 0q242 289 388.5 473.5t224 303.5t102 182t24.5 120q0 79 -39.5 121.5t-116.5 42.5q-58 0 -115.5 -23.5t-104 -62.5t-76 -69.5t-54.5 -63.5l8 236q22 30 60.5 62.5t93.5 65t129.5 53.5t151.5 21q88 0 153 -27.5t99.5 -74.5t50.5 -100t16 -113q0 -150 -111 -344.5 t-391 -548.5h398l-45 -254h-846z" />
<glyph unicode="3" horiz-adv-x="1081" d="M-12 82l106 242q28 -42 110 -71.5t175 -29.5q60 0 111 13.5t94 43t67.5 82.5t24.5 125q0 89 -46 140t-159 51h-182l57 203h94q82 0 141.5 19.5t89.5 53t43 69t13 75.5q0 70 -39.5 106.5t-132.5 36.5q-66 0 -135.5 -18t-112.5 -52l-8 197q46 38 137 66t199 28 q102 0 176 -28.5t112.5 -77.5t55 -101t16.5 -112q0 -107 -49 -197.5t-133 -150.5q121 -97 121 -283q0 -126 -52 -230.5t-137.5 -171t-189.5 -103t-213 -36.5q-121 0 -228.5 39.5t-125.5 71.5z" />
<glyph unicode="4" horiz-adv-x="1165" d="M-10 389l817 1045h219l-145 -832h166l-37 -213h-168l-68 -389h-262l70 389h-592zM377 602h241l76 430z" />
<glyph unicode="5" horiz-adv-x="1081" d="M20 88l103 238q39 -45 113 -76t159 -31q130 0 218.5 72t88.5 205q0 43 -11.5 74t-41.5 57.5t-89 39.5t-148 13h-217l221 754h631l-72 -254h-410l-82 -281q252 -5 363.5 -86.5t111.5 -265.5q0 -132 -53 -243.5t-138.5 -182t-191 -109.5t-213.5 -39q-83 0 -166 21.5 t-130 48.5t-46 45z" />
<glyph unicode="6" horiz-adv-x="1128" d="M96 383q0 123 32 245.5t85 224t121 194t142.5 162t146.5 121t134.5 78t106.5 26.5l154 -103q-42 0 -130 -51.5t-181 -128.5t-173 -179t-102 -190q72 80 238 80q157 0 252.5 -87t95.5 -249q0 -144 -73 -271t-205 -205.5t-289 -78.5q-167 0 -261 98.5t-94 313.5zM342 391 q0 -94 52 -140t124 -46q101 0 178.5 86.5t77.5 189.5q0 70 -40.5 119t-129.5 49q-107 0 -184.5 -72.5t-77.5 -185.5z" />
<glyph unicode="7" horiz-adv-x="1028" d="M47 0l672 1180h-526l45 254h907l-823 -1434h-275z" />
<glyph unicode="8" horiz-adv-x="1202" d="M74 315q0 117 66.5 235t213.5 222q-40 42 -60 110.5t-20 141.5q0 66 15 126t51 118t89.5 100.5t137.5 68t189 25.5q188 0 270 -76t82 -202q0 -208 -225 -393q78 -44 126 -128t48 -184q0 -86 -37.5 -173.5t-107 -163t-183 -123.5t-250.5 -48q-105 0 -185 28t-127 77 t-70 109t-23 130zM326 362q0 -90 50.5 -136t145.5 -46q125 0 201 76.5t76 192.5q0 94 -49 152.5t-127 78.5q-71 -12 -137 -51.5t-113 -110.5t-47 -156zM502 1040q0 -63 30.5 -104.5t104.5 -65.5q223 61 223 248q0 65 -32.5 102t-114.5 37q-48 0 -86 -14t-61 -36t-38 -52 t-20.5 -58t-5.5 -57z" />
<glyph unicode="9" horiz-adv-x="1134" d="M150 903q0 109 44 211t119 178.5t182 123t226 46.5q354 0 354 -420q0 -135 -37 -271.5t-99 -248.5t-142 -210.5t-166 -166.5t-172 -106.5t-158 -38.5l-143 102q35 0 98.5 27.5t140.5 80t149.5 118t129 151.5t74.5 170q-40 -39 -126 -58.5t-122 -19.5q-163 0 -257.5 85 t-94.5 247zM410 946q0 -69 38 -115.5t123 -46.5q106 0 185.5 73.5t79.5 195.5q0 50 -15 86.5t-40.5 55t-52.5 26.5t-58 8q-111 0 -185.5 -88.5t-74.5 -194.5z" />
<glyph unicode=":" horiz-adv-x="479" d="M6 0l47 266h254l-47 -266h-254zM119 635l47 266h254l-47 -266h-254z" />
<glyph unicode=";" horiz-adv-x="512" d="M-23 -197l97 177l-62 20l47 266h250l-45 -266l-239 -225zM123 635l47 266h283l-47 -266h-283z" />
<glyph unicode="&#x3c;" horiz-adv-x="899" d="M57 582l490 422h305l-490 -422l343 -422h-306z" />
<glyph unicode="=" horiz-adv-x="993" d="M80 307l35 193h727l-35 -193h-727zM137 635l35 192h727l-35 -192h-727z" />
<glyph unicode="&#x3e;" horiz-adv-x="903" d="M43 160l489 422l-339 422h305l340 -422l-490 -422h-305z" />
<glyph unicode="?" horiz-adv-x="884" d="M170 0l45 254h254l-45 -254h-254zM201 1391q62 72 152.5 108.5t187.5 36.5q89 0 159 -31.5t110.5 -82t60.5 -108.5t20 -118q0 -77 -39.5 -154t-98 -144.5t-118.5 -135.5t-110 -153.5t-64 -172.5l-4 -26h-174q10 92 14 108q13 75 55 150.5t90.5 135t96 119.5t79 127 t31.5 134q0 74 -43.5 112.5t-116.5 38.5q-144 0 -266 -133z" />
<glyph unicode="@" horiz-adv-x="1425" d="M43 240q0 180 77.5 347t202 285.5t286 189.5t325.5 71q197 0 304.5 -111.5t107.5 -304.5q0 -87 -23 -176.5t-66 -168.5t-116 -129t-162 -50q-35 0 -52.5 14t-17.5 55q0 55 24 120.5t80.5 185t92.5 208.5q-80 109 -219 109q-98 0 -207.5 -57.5t-197.5 -145.5t-145.5 -203 t-57.5 -221q0 -77 35 -126.5t110 -49.5q90 0 202 63.5t193 173.5q-1 -5 -7 -23.5t-10.5 -40t-4.5 -44.5q0 -51 21 -88t69 -37q52 0 136.5 40t141.5 91q-126 -178 -319.5 -286.5t-394.5 -108.5q-193 0 -300.5 110.5t-107.5 307.5zM444 313q0 86 46.5 170.5t114 143.5t143 96 t135.5 37q72 0 80 -45q-37 -107 -119.5 -224t-175.5 -195.5t-156 -78.5q-34 0 -51 26.5t-17 69.5z" />
<glyph unicode="A" d="M-88 0l741 1434h246l236 -1434h-273l-55 346h-447l-176 -346h-272zM496 600h266l-60 420z" />
<glyph unicode="B" horiz-adv-x="1261" d="M53 0l252 1434h383q93 0 160 -6.5t129 -25t99.5 -50.5t60 -85.5t22.5 -127.5q0 -109 -45 -206.5t-133 -166.5q98 -45 143 -110t45 -181q0 -103 -35.5 -186.5t-92.5 -136t-133.5 -88t-154.5 -50t-159 -14.5h-541zM354 223h258q138 0 212.5 60t74.5 184q0 95 -48.5 139.5 t-164.5 44.5h-256zM467 858h248q31 0 62 10t62 32t50.5 66.5t19.5 104.5q0 81 -36 110t-115 29h-230z" />
<glyph unicode="C" horiz-adv-x="1214" d="M86 588q0 186 65.5 349.5t177 278t264.5 180.5t322 66q101 0 202.5 -23t170.5 -61l-74 -250q-182 82 -333 82q-122 0 -219.5 -48.5t-159.5 -131.5t-94.5 -190t-32.5 -228q0 -389 334 -389q150 0 360 82l-14 -250q-83 -38 -192.5 -61t-207.5 -23q-264 0 -416.5 164 t-152.5 453z" />
<glyph unicode="D" horiz-adv-x="1437" d="M53 0l252 1434h516q262 0 415 -155.5t153 -442.5q0 -182 -65 -339t-175.5 -265.5t-261 -170t-318.5 -61.5h-516zM360 252h254q116 0 209.5 44.5t153 121t91.5 177.5t32 216q0 183 -81 277t-241 94h-254z" />
<glyph unicode="E" horiz-adv-x="1136" d="M53 0l252 1434h889l-45 -254h-619l-53 -306h477l-45 -253h-477l-65 -367h639l-45 -254h-908z" />
<glyph unicode="F" horiz-adv-x="1050" d="M53 0l252 1434h850l-45 -254h-586l-55 -306h455l-45 -253h-455l-109 -621h-262z" />
<glyph unicode="G" horiz-adv-x="1323" d="M86 592q0 183 65 345.5t176 277t263.5 181t322.5 66.5q106 0 222 -23.5t182 -60.5l-74 -250q-75 35 -174.5 58.5t-187.5 23.5q-99 0 -182.5 -32.5t-142 -88.5t-99.5 -131t-60.5 -160t-19.5 -175q0 -189 86 -294.5t254 -105.5q69 0 184 23l45 256h-141l39 217h401 l-112 -639q-82 -44 -227 -76.5t-261 -32.5q-255 0 -407 166.5t-152 454.5z" />
<glyph unicode="H" horiz-adv-x="1470" d="M53 0l252 1434h262l-98 -560h629l98 560h262l-252 -1434h-262l109 621h-629l-109 -621h-262z" />
<glyph unicode="I" horiz-adv-x="579" d="M53 0l252 1434h262l-252 -1434h-262z" />
<glyph unicode="J" horiz-adv-x="579" d="M-143 -352l14 196h61q50 0 78 39t43 125l252 1426h262l-262 -1483q-27 -150 -125.5 -226.5t-245.5 -76.5h-77z" />
<glyph unicode="K" horiz-adv-x="1253" d="M53 0l252 1434h262l-252 -1434h-262zM494 758l593 676h297l-593 -676l342 -758h-297z" />
<glyph unicode="L" horiz-adv-x="1003" d="M53 0l252 1434h262l-207 -1180h555l-45 -254h-817z" />
<glyph unicode="M" horiz-adv-x="1656" d="M-16 0l444 1434h227l203 -654l434 654h226l-60 -1434h-272l57 952l-469 -651l-235 651l-283 -952h-272z" />
<glyph unicode="N" horiz-adv-x="1409" d="M53 0l252 1434h256l410 -926l164 926h262l-254 -1434h-213l-441 983l-174 -983h-262z" />
<glyph unicode="O" horiz-adv-x="1519" d="M86 588q0 184 66 347.5t176.5 278.5t260.5 181.5t314 66.5q264 0 418 -164.5t154 -451.5q0 -184 -66 -348t-177 -278.5t-261 -181.5t-314 -67q-264 0 -417.5 164.5t-153.5 452.5zM375 610q0 -184 80.5 -285.5t242.5 -101.5q111 0 204 49.5t154 133t94.5 191.5t33.5 226 q0 183 -81 285t-243 102q-147 0 -259.5 -85.5t-169 -220.5t-56.5 -294z" />
<glyph unicode="P" horiz-adv-x="1202" d="M53 0l252 1434h381q85 0 148 -3.5t122.5 -13.5t100.5 -27.5t75.5 -44.5t54.5 -66t31 -91t11 -119q0 -133 -41 -240t-103.5 -172t-144.5 -108.5t-157.5 -60.5t-147.5 -17h-238l-84 -471h-260zM440 717h205q173 0 242 74.5t69 230.5q0 49 -7 80t-29.5 59t-68 40.5 t-118.5 12.5h-205z" />
<glyph unicode="Q" horiz-adv-x="1519" d="M86 588q0 183 66 346.5t176.5 278.5t260.5 182t314 67q264 0 418 -164.5t154 -441.5q0 -311 -213 -590l102 -104l-184 -182l-117 116q-181 -125 -412 -125q-259 0 -412 165.5t-153 451.5zM375 612q0 -184 80 -286.5t239 -102.5q107 0 187 47l-133 146l186 182l139 -152 q109 201 109 390q0 171 -80 272.5t-242 101.5q-146 0 -258.5 -84.5t-169.5 -219t-57 -294.5z" />
<glyph unicode="R" horiz-adv-x="1255" d="M53 0l252 1434h514q94 0 166.5 -18t128.5 -57.5t85.5 -108t29.5 -163.5q0 -304 -316 -485l205 -602h-272l-189 532h-249l-95 -532h-260zM451 778h167q175 0 252.5 66t77.5 198q0 43 -9 71.5t-33 53t-71 36t-120 11.5h-187z" />
<glyph unicode="S" horiz-adv-x="1159" d="M10 76l82 299q49 -63 155.5 -107.5t250.5 -44.5q264 0 264 174q0 45 -16 78.5t-56 61.5t-81.5 47.5t-119.5 50.5q-41 16 -61 24.5t-58 25.5t-58 30.5t-49.5 34.5t-45.5 42.5t-32.5 49.5t-23.5 61.5t-7 71.5q0 62 19.5 127t64.5 130t110 116t165 82.5t220 31.5 q132 0 250 -34.5t170 -75.5l-74 -269q-207 129 -379 129q-46 0 -90.5 -8t-87.5 -25.5t-69.5 -52.5t-26.5 -82q0 -30 12.5 -55.5t31 -42.5t53 -35t64 -29t79.5 -28q54 -19 83 -29.5t78 -32.5t76.5 -41t62 -50.5t53 -65.5t31.5 -80.5t13 -101.5q0 -71 -19 -137t-64.5 -129.5 t-114 -110.5t-175.5 -76t-241 -29q-147 0 -265 31t-174 74z" />
<glyph unicode="T" horiz-adv-x="1155" d="M162 1180l45 254h1036l-45 -254h-387l-207 -1180h-262l207 1180h-387z" />
<glyph unicode="U" horiz-adv-x="1423" d="M129 434q0 89 16 180l146 820h260l-129 -732q-21 -120 -21 -200q2 -135 57 -207t187 -72q93 0 162 36t113.5 105.5t71.5 149t46 188.5l129 732h263l-146 -820q-54 -301 -227 -472t-455 -171q-237 0 -355 120.5t-118 342.5z" />
<glyph unicode="V" horiz-adv-x="1306" d="M143 1434h273l188 -1129l561 1129h271l-731 -1434h-324z" />
<glyph unicode="W" horiz-adv-x="1912" d="M178 1434h273l90 -1018l481 1018h176l137 -992l432 992h273l-656 -1434h-225l-135 956l-469 -956h-242z" />
<glyph unicode="X" horiz-adv-x="1261" d="M-100 0l610 737l-332 697h303l213 -516l375 516h305l-567 -707l346 -727h-307l-232 526l-411 -526h-303z" />
<glyph unicode="Y" horiz-adv-x="1234" d="M150 1434h278l234 -574l425 574h279l-618 -799l-113 -635h-260l110 635z" />
<glyph unicode="Z" horiz-adv-x="1097" d="M-80 0l823 1180h-526l45 254h959l-824 -1180h527l-45 -254h-959z" />
<glyph unicode="[" horiz-adv-x="667" d="M-16 -279l319 1815h506l-39 -223h-274l-242 -1368h274l-39 -224h-505z" />
<glyph unicode="\" horiz-adv-x="1095" d="M213 1434h276l431 -1608h-277z" />
<glyph unicode="]" horiz-adv-x="681" d="M-119 -279l45 254h273l231 1307h-274l45 254h506l-320 -1815h-506z" />
<glyph unicode="^" horiz-adv-x="1005" d="M242 819l53 301l481 434l328 -434l-51 -301l-330 434z" />
<glyph unicode="_" horiz-adv-x="1097" d="M-156 -266l35 192h1100l-33 -192h-1102z" />
<glyph unicode="`" horiz-adv-x="595" d="M348 1323l37 213l336 -186l-27 -152z" />
<glyph unicode="a" horiz-adv-x="1196" d="M37 418q0 94 25.5 184.5t76.5 169.5t121 139t165.5 94.5t203.5 34.5q74 0 121 -16t88 -51l28 51h234l-119 -700q-8 -47 -8 -78q0 -40 19 -49t81 -9l-57 -208q-107 0 -161 10t-82.5 33t-55.5 75q-127 -118 -293 -118q-179 0 -283 122.5t-104 315.5zM301 438 q0 -117 49.5 -183.5t151.5 -66.5q65 0 115.5 28t80 71t48.5 100t25.5 108t6.5 103q0 114 -39 173.5t-133 59.5q-134 0 -219.5 -114t-85.5 -279z" />
<glyph unicode="b" horiz-adv-x="1146" d="M14 0l271 1536h256l-101 -563q55 35 107 51t123 16q135 0 228.5 -58.5t136 -155t42.5 -222.5q0 -119 -40.5 -230.5t-113.5 -199.5t-187 -141t-251 -53q-79 0 -124 18t-95 59l-12 -57h-240zM336 422q0 -114 40 -174t134 -60q89 0 159.5 54t108 143t37.5 195 q0 118 -49.5 184.5t-151.5 66.5q-62 0 -111.5 -26.5t-80 -68t-50.5 -97t-28 -109t-8 -108.5z" />
<glyph unicode="c" horiz-adv-x="894" d="M37 412q0 122 40 234t113.5 200.5t189 141t255.5 52.5q167 0 266 -75l-59 -217q-106 83 -230 83q-141 0 -226 -113.5t-85 -279.5q0 -118 48.5 -184t150.5 -66q121 0 258 84l-17 -217q-127 -75 -290 -75q-108 0 -189.5 33.5t-129.5 93t-71.5 136t-23.5 169.5z" />
<glyph unicode="d" horiz-adv-x="1148" d="M37 414q0 95 25.5 186.5t76.5 171t121 139.5t165.5 94.5t203.5 34.5q74 0 121 -16t88 -51l100 563h254l-270 -1536h-242l8 57q-66 -41 -117 -59t-127 -18q-135 0 -228.5 58.5t-136 154.5t-42.5 221zM301 438q0 -117 49.5 -183.5t151.5 -66.5q65 0 115.5 28t80 71 t48.5 100t25.5 108t6.5 103q0 114 -39 173.5t-133 59.5q-134 0 -219.5 -114t-85.5 -279z" />
<glyph unicode="e" horiz-adv-x="999" d="M37 420q0 118 41.5 229t115 198t183.5 140t237 53q160 0 247 -80.5t87 -216.5q0 -90 -39.5 -157t-109.5 -105t-154.5 -55.5t-185.5 -17.5q-102 0 -156 12q5 -81 41 -135t85.5 -75.5t109.5 -21.5q68 0 161 24.5t160 59.5l-29 -215q-154 -77 -342 -77q-223 0 -337.5 122.5 t-114.5 317.5zM324 582q38 -9 94 -9q172 0 244.5 45t72.5 113q0 32 -14.5 54t-38 31t-41.5 12t-37 3q-57 0 -107 -25t-83.5 -65t-56 -80t-33.5 -79z" />
<glyph unicode="f" horiz-adv-x="686" d="M72 0l143 815h-135l59 209h113l43 244q46 268 332 268q60 0 178 -12l-60 -211q-56 10 -81 10q-69 0 -92.5 -30.5t-41.5 -129.5l-24 -139h211l-37 -209h-211l-143 -815h-254z" />
<glyph unicode="g" horiz-adv-x="997" d="M-94 -244q0 154 205 264q-64 50 -64 125q0 101 123 162q-47 44 -72.5 113.5t-25.5 148.5q0 124 57.5 231t167.5 173.5t250 66.5q136 0 213 -61q31 19 90.5 32t124.5 13h69l-43 -160h-96q-27 0 -45 -2q23 -67 23 -153q0 -93 -33.5 -179t-93.5 -152t-150.5 -105.5 t-197.5 -39.5q-41 0 -101 11q-22 -13 -22 -39q0 -32 51 -47t172 -31q36 -5 61 -9.5t64 -14.5t66.5 -22.5t59 -33.5t50.5 -46.5t32 -63t13 -82.5q0 -160 -142.5 -263.5t-385.5 -103.5q-211 0 -315.5 77.5t-104.5 190.5zM119 -199q0 -63 58 -98t163 -35q118 0 201.5 41.5 t83.5 106.5q0 34 -24 58.5t-68.5 38t-84 20.5t-94 13.5t-75.5 10.5q-160 -54 -160 -156zM299 588q0 -168 141 -168q99 0 157 76.5t58 187.5q0 170 -143 170q-99 0 -156 -77t-57 -189z" />
<glyph unicode="h" horiz-adv-x="1101" d="M14 0l271 1536h254l-99 -565q64 38 113 53.5t113 15.5q163 0 247 -92t84 -254q0 -67 -110 -694h-254q106 615 106 662q0 86 -36.5 127.5t-112.5 41.5q-106 0 -191 -88l-131 -743h-254z" />
<glyph unicode="i" horiz-adv-x="495" d="M14 0l181 1024h254l-181 -1024h-254zM223 1180l43 254h256l-45 -254h-254z" />
<glyph unicode="j" horiz-adv-x="497" d="M-164 -496l14 209q43 0 62.5 3t37 21t25.5 48t19 92l203 1147h254l-222 -1251q-22 -121 -95 -195t-204 -74h-94zM223 1180l45 254h254l-45 -254h-254z" />
<glyph unicode="k" horiz-adv-x="983" d="M14 0l271 1536h256l-166 -932l381 420h284l-440 -492l258 -532h-285l-225 455l-80 -455h-254z" />
<glyph unicode="l" horiz-adv-x="540" d="M49 182q0 26 234 1354h254q-222 -1259 -222 -1284q0 -18 5 -30.5t11.5 -19t21 -10t26 -4t33.5 -0.5l-60 -208h-92q-106 0 -158.5 55t-52.5 147z" />
<glyph unicode="m" horiz-adv-x="1712" d="M14 0l181 1024h208v-80q46 40 119 68t148 28q85 0 158 -38.5t108 -116.5q36 57 132.5 106t217.5 49q160 0 241 -92t81 -250q0 -37 -17 -145.5t-94 -552.5h-254q81 466 95 551.5t14 112.5q0 95 -34.5 131t-103.5 36q-54 0 -95.5 -17t-66.5 -47t-38.5 -62.5t-20.5 -71.5 l-110 -633h-252q13 76 35 202q74 422 77 468v14q0 147 -157 147q-105 0 -185 -83l-133 -748h-254z" />
<glyph unicode="n" horiz-adv-x="1097" d="M14 0l181 1024h223l10 -61q55 39 108.5 58t127.5 19q162 0 245.5 -92t83.5 -254q0 -67 -110 -694h-256q106 605 106 659q0 90 -34.5 131t-110.5 41q-101 0 -189 -88l-131 -743h-254z" />
<glyph unicode="o" horiz-adv-x="1124" d="M35 420q0 161 75.5 302.5t214 229.5t308.5 88q104 0 186 -34.5t133.5 -95t78 -139.5t26.5 -171q0 -161 -75.5 -302.5t-214 -229.5t-308.5 -88q-104 0 -186 34.5t-133.5 95t-78 139.5t-26.5 171zM297 440q0 -119 50 -185.5t147 -66.5q87 0 156.5 54.5t107 144.5t37.5 195 q0 118 -50.5 183.5t-146.5 65.5q-130 0 -215.5 -114t-85.5 -277z" />
<glyph unicode="p" horiz-adv-x="1146" d="M-74 -496l269 1520h223l10 -59q58 38 114 56.5t130 18.5q100 0 178.5 -34t127.5 -93.5t74 -138t25 -170.5q0 -120 -42 -232t-117 -199.5t-188.5 -140t-246.5 -52.5q-74 0 -118 16t-89 53l-96 -545h-254zM334 422q0 -114 40 -174t134 -60q135 0 221 115t86 279 q0 117 -50.5 183t-152.5 66q-78 0 -135.5 -39.5t-87 -104t-42.5 -130.5t-13 -135z" />
<glyph unicode="q" horiz-adv-x="1148" d="M37 416q0 120 42 232t116 199.5t186 140t242 52.5q78 0 128 -18.5t95 -56.5l31 59h225l-268 -1520h-256l96 545q-59 -37 -108 -53t-122 -16q-197 0 -302 122t-105 314zM299 440q0 -118 50.5 -185t152.5 -67q78 0 135.5 39.5t87 104.5t42.5 131t13 135q0 113 -39.5 173 t-130.5 60q-138 0 -224.5 -113.5t-86.5 -277.5z" />
<glyph unicode="r" horiz-adv-x="696" d="M14 0l181 1024h241l-16 -109q44 48 120 86.5t154 38.5h72l-90 -239h-96q-58 0 -110 -29.5t-79 -73.5l-125 -698h-252z" />
<glyph unicode="s" horiz-adv-x="851" d="M-27 55l60 217q44 -39 127.5 -70.5t161.5 -31.5q48 0 82 13.5t50 35t22.5 41t6.5 39.5q0 27 -10.5 47t-37 35.5t-46 24t-61.5 22.5q-45 15 -70.5 25t-61.5 30.5t-55.5 43t-34 58.5t-14.5 81q0 46 12.5 94.5t44 99.5t77.5 90.5t120.5 64.5t165.5 25q94 0 181.5 -23 t123.5 -52l-59 -217q-32 42 -106.5 76t-151.5 34q-72 0 -125 -32t-53 -93q0 -22 9 -40t19 -29t34.5 -22.5t38.5 -16.5t48.5 -15.5t48.5 -15.5q53 -17 87.5 -34t68 -46t49.5 -73t16 -105q0 -55 -13.5 -104.5t-46 -96.5t-82 -80.5t-127.5 -54t-177 -20.5q-109 0 -195 21.5 t-127 53.5z" />
<glyph unicode="t" horiz-adv-x="692" d="M80 815l59 209h113l41 225l258 27l-45 -252h211l-37 -209h-209q-94 -531 -94 -561q0 -43 24.5 -54.5t98.5 -11.5h71l-61 -208h-176q-113 0 -168 60.5t-55 154.5q0 34 104 620h-135z" />
<glyph unicode="u" horiz-adv-x="1107" d="M72 330q0 67 110 694h254q-106 -607 -106 -659q0 -172 151 -172q110 0 193 86l133 745h254l-180 -1024h-240l8 61q-64 -42 -119.5 -61.5t-128.5 -19.5q-163 0 -246 93t-83 257z" />
<glyph unicode="v" horiz-adv-x="987" d="M76 1024h248l110 -709l365 709h245l-561 -1024h-209z" />
<glyph unicode="w" horiz-adv-x="1439" d="M98 1024h242l41 -715l305 695h207l57 -695l295 715h242l-467 -1024h-205l-84 668l-321 -668h-205z" />
<glyph unicode="x" horiz-adv-x="985" d="M-80 0l404 512l-224 512h306l106 -330l217 330h305l-409 -512l227 -512h-305l-111 303l-211 -303h-305z" />
<glyph unicode="y" horiz-adv-x="1071" d="M-6 -496l317 564l-241 956h282l127 -659l371 659h283l-887 -1520h-252z" />
<glyph unicode="z" horiz-adv-x="944" d="M-57 0l563 799h-404l41 225h830l-563 -799h399l-41 -225h-825z" />
<glyph unicode="{" horiz-adv-x="645" d="M35 629q101 50 147 112t68 179q8 46 19 143t18 135q20 113 71.5 185t154.5 112.5t263 40.5l-39 -223q-135 0 -181 -26q-45 -26 -67 -107q-11 -40 -32 -156q-5 -27 -12.5 -84t-12.5 -84q-29 -162 -129 -227q59 -49 59 -150q0 -56 -34.5 -175.5t-34.5 -219.5q0 -87 41 -113 t162 -26l-41 -224q-198 0 -287.5 65.5t-89.5 199.5q0 63 40 211t40 219q0 73 -29 124t-94 89z" />
<glyph unicode="|" horiz-adv-x="475" d="M-45 -430l346 1966h201l-346 -1966h-201z" />
<glyph unicode="}" horiz-adv-x="647" d="M-121 -279l39 224q61 0 97.5 2.5t67 17.5t45 28t29.5 55.5t21.5 75.5t20.5 112q6 34 13.5 95t12.5 87q12 71 40 122.5t87 88.5q-57 49 -57 159q0 40 16.5 97t33.5 131.5t17 157.5q0 87 -40.5 113t-161.5 26l39 223q202 0 290.5 -66.5t88.5 -197.5q0 -63 -40 -210.5 t-40 -219.5q0 -76 29 -125t94 -88q-103 -50 -148.5 -113.5t-66.5 -175.5q-8 -47 -19 -145t-18 -136q-31 -174 -145.5 -256t-344.5 -82z" />
<glyph unicode="~" horiz-adv-x="942" d="M61 391q25 97 110 153t179 56q42 0 75 -13.5t49.5 -29.5t39 -29.5t47.5 -13.5q42 0 79.5 31.5t45.5 64.5l156 -41q-25 -83 -100 -146t-173 -63q-47 0 -89 21.5t-77 43t-67 21.5q-37 0 -64.5 -29.5t-40.5 -66.5z" />
<glyph unicode="&#xa1;" horiz-adv-x="501" d="M-68 -512l236 1126h170l-162 -1126h-244zM152 770l45 254h256l-43 -254h-258z" />
<glyph unicode="&#xa2;" horiz-adv-x="948" d="M82 610q0 114 35.5 220.5t99 192t160 143.5t211.5 73l16 293h197l-84 -291q82 -4 133 -22.5t96 -51.5l-61 -217q-107 84 -240 84q-134 0 -219.5 -114t-85.5 -283q0 -112 50 -179t142 -67q132 0 269 84l-15 -217q-110 -66 -251 -76l-15 -248h-198l75 252 q-103 15 -175.5 76.5t-106 150t-33.5 197.5z" />
<glyph unicode="&#xa3;" horiz-adv-x="1052" d="M-39 0q244 244 348 639h-174l74 172h141l37 213q12 68 27 120.5t46 112t72.5 98.5t109.5 65t155 26q243 0 256 -209l-123 -125q-4 33 -7 52.5t-11.5 44t-20.5 37.5t-33 22.5t-49 9.5q-38 0 -67 -16.5t-47 -39.5t-33 -67.5t-22.5 -78t-18.5 -93.5l-29 -172h354l-72 -172 h-321q-55 -230 -166 -426h467l-37 -213h-856z" />
<glyph unicode="&#xa4;" horiz-adv-x="1253" d="M33 141l174 199q-70 109 -70 278q0 131 54 252t151 215l-109 199l148 102l108 -202q112 59 250 59q141 0 230 -61l182 204l109 -102l-177 -201q70 -109 70 -278q0 -132 -54 -252t-149 -213l109 -199l-146 -102l-110 203q-108 -60 -250 -60q-143 0 -231 60l-179 -203z M401 637q0 -112 49 -179t140 -67q132 0 216.5 114.5t84.5 282.5q0 112 -49.5 179t-139.5 67q-133 0 -217 -114t-84 -283z" />
<glyph unicode="&#xa5;" horiz-adv-x="1413" d="M193 283l73 141h273l20 125h-319l73 141h232l-344 744h274l273 -566l471 566h274l-606 -744h280l-77 -141h-269l-22 -125h321l-78 -141h-268l-49 -283h-262l49 283h-319z" />
<glyph unicode="&#xa6;" horiz-adv-x="452" d="M-43 -430l145 819h172l-145 -819h-172zM135 582l168 954h174l-168 -954h-174z" />
<glyph unicode="&#xa7;" horiz-adv-x="921" d="M12 -90l56 215q47 -43 113 -72.5t120 -29.5q38 0 70 6t62 20.5t47.5 43.5t17.5 69q0 38 -22.5 67t-58 49t-79 39t-87 43.5t-79 56t-58 83t-22.5 118.5q0 124 56 220.5t163 142.5q-47 57 -47 156q0 49 11.5 100t41.5 106t74 97t117 69t164 27q78 0 158.5 -26t107.5 -58 l-55 -215q-49 43 -115 72.5t-121 29.5q-38 0 -70 -6t-62 -20.5t-47 -43.5t-17 -69q0 -38 22.5 -67t58.5 -49t79 -39t86.5 -44t79.5 -56.5t58.5 -83t22.5 -118.5q0 -125 -57 -221t-166 -141q47 -60 47 -158q0 -48 -11 -98t-40 -105t-72.5 -97t-116 -69.5t-163.5 -27.5 q-78 0 -159 26t-108 58zM299 702q0 -129 213 -196q35 0 89 50t54 103q0 33 -15 60.5t-35 44.5t-54 32.5t-57 22.5t-60 17q-42 0 -88.5 -40t-46.5 -94z" />
<glyph unicode="&#xa8;" horiz-adv-x="829" d="M385 1217l39 217h199l-39 -217h-199zM674 1217l37 217h200l-39 -217h-198z" />
<glyph unicode="&#xa9;" horiz-adv-x="1423" d="M113 625q0 171 59 320t160 252t237 162.5t287 59.5q230 0 368 -149.5t138 -397.5q0 -171 -59.5 -320t-160 -253t-237 -163.5t-287.5 -59.5q-230 0 -367.5 150.5t-137.5 398.5zM272 633q0 -188 94.5 -302t278.5 -114q105 0 195.5 34t156 94t111.5 141.5t69 176.5t23 199 q0 188 -93.5 301t-275.5 113q-132 0 -239.5 -52t-176.5 -141t-106 -204.5t-37 -245.5zM422 678q0 182 114 302t279 120q108 0 197 -47l-51 -174q-99 47 -177 47t-126 -64t-48 -162q0 -65 28.5 -102t82.5 -37q80 0 192 51l-10 -172q-94 -51 -213 -51q-123 0 -195.5 79 t-72.5 210z" />
<glyph unicode="&#xaa;" horiz-adv-x="722" d="M141 1038q0 57 32 102.5t75.5 71.5t97.5 44t89 24t59 8q-10 24 -24.5 30.5t-45.5 6.5q-39 0 -101 -14t-81 -17l20 166q136 39 254 39q73 0 135 -37t62 -90q0 -50 -37 -260q-2 -12 -2 -29q2 -20 20 -20h33l-37 -174h-106q-28 0 -66.5 13.5t-52.5 27.5q-24 -21 -80 -31 t-113 -10q-54 0 -92.5 38t-38.5 111zM371 1069q0 -14 11.5 -27.5t31.5 -13.5q6 0 19 -1t16 -1l22 127q-16 0 -45 -13q-55 -23 -55 -71z" />
<glyph unicode="&#xab;" horiz-adv-x="1216" d="M23 582l374 422h303l-374 -422l227 -422h-305zM535 582l374 422h303l-374 -422l225 -422h-303z" />
<glyph unicode="&#xac;" horiz-adv-x="1165" d="M125 639l35 192h903l-92 -522h-197l57 330h-706z" />
<glyph unicode="&#xad;" horiz-adv-x="835" d="M90 471l35 193h608l-33 -193h-610z" />
<glyph unicode="&#xae;" horiz-adv-x="1423" d="M113 625q0 171 59 320t160 252t237 162.5t287 59.5q230 0 368 -149.5t138 -397.5q0 -171 -59.5 -320t-160 -253t-237 -163.5t-287.5 -59.5q-230 0 -367.5 150.5t-137.5 398.5zM274 633q0 -187 94.5 -300.5t276.5 -113.5q131 0 237.5 52t174.5 141.5t104.5 205.5t36.5 246 q0 187 -92.5 298.5t-274.5 111.5q-131 0 -238 -51.5t-176 -140t-106 -204t-37 -245.5zM428 416l121 686h254q203 0 203 -174q0 -78 -39 -138.5t-90 -91.5l98 -282h-193l-82 229h-51l-39 -229h-182zM680 811h41q52 0 74 22t22 68q0 24 -14 35.5t-53 11.5h-45z" />
<glyph unicode="&#xb0;" horiz-adv-x="653" d="M174 1217q0 133 88.5 231t224.5 98q103 0 161.5 -65.5t58.5 -165.5q0 -133 -90.5 -230.5t-227.5 -97.5q-102 0 -158.5 65t-56.5 165zM315 1221q0 -59 24.5 -94t68.5 -35q70 0 112.5 63.5t42.5 157.5q0 59 -24 94t-70 35q-66 0 -110 -64t-44 -157z" />
<glyph unicode="&#xb1;" horiz-adv-x="970" d="M29 61l34 193h728l-35 -193h-727zM129 635l35 192h266l47 263h195l-47 -263h266l-33 -192h-268l-45 -262h-195l47 262h-268z" />
<glyph unicode="&#xb2;" horiz-adv-x="620" d="M47 655q176 202 265.5 318t115 167t25.5 93q0 63 -54 63q-65 0 -123.5 -52.5t-80.5 -90.5l6 178q38 50 106 82.5t154 32.5q96 0 138 -50t42 -118q0 -75 -52 -171.5t-169 -248.5h176l-37 -203h-512z" />
<glyph unicode="&#xb3;" horiz-adv-x="610" d="M55 700l82 185q9 -21 51.5 -35t85.5 -14q142 0 142 88q0 77 -62 77h-135l41 148h70q54 0 79 25.5t25 50.5q0 27 -18 49t-62 22q-81 0 -123 -34l-6 133q26 22 83.5 36.5t101.5 14.5q64 0 110 -17t68.5 -46t32.5 -58t10 -61q0 -43 -15.5 -87t-28.5 -64.5t-20 -27.5 q1 -13 18 -58t17 -87q0 -94 -52.5 -164.5t-130 -103.5t-165.5 -33q-62 0 -126 22t-73 39z" />
<glyph unicode="&#xb4;" horiz-adv-x="595" d="M326 1198l26 152l402 186l-39 -213z" />
<glyph unicode="&#xb5;" horiz-adv-x="1234" d="M-45 -496l268 1520h254l-96 -551q-10 -51 -10 -106q0 -88 35.5 -131t111.5 -43q116 0 193 86l133 745h256l-119 -672q-12 -70 -12 -106q0 -37 14 -47.5t53 -10.5h31l-57 -208h-95q-147 0 -194 106q-47 -42 -121.5 -72t-136.5 -30q-103 0 -164 28l-88 -508h-256z" />
<glyph unicode="&#xb6;" d="M125 887q0 100 44.5 197t125 175.5t207 126.5t278.5 48h512l-39 -220h-133l-215 -1214h-186l215 1214h-109l-215 -1214h-145l84 469q-105 7 -187.5 44.5t-133.5 95.5t-77 129t-26 149z" />
<glyph unicode="&#xb7;" horiz-adv-x="471" d="M84 436l47 266h244l-47 -266h-244z" />
<glyph unicode="&#xb8;" horiz-adv-x="593" d="M178 -397l187 272l219 19l-248 -273z" />
<glyph unicode="&#xb9;" horiz-adv-x="450" d="M143 655l88 506q-20 -4 -71 -4l22 152q25 0 77 41.5t60 79.5h156l-137 -775h-195z" />
<glyph unicode="&#xba;" horiz-adv-x="757" d="M158 1149q0 136 108 243t269 107q127 0 197.5 -75.5t70.5 -184.5q0 -65 -27.5 -128t-75.5 -112.5t-120 -79.5t-154 -30q-126 0 -197 75.5t-71 184.5zM375 1163q0 -49 21 -82.5t59 -33.5q53 0 92 55t39 123q0 48 -21.5 82t-58.5 34q-54 0 -92.5 -55t-38.5 -123z" />
<glyph unicode="&#xbb;" horiz-adv-x="1218" d="M-2 160l375 422l-226 422h304l225 -422l-375 -422h-303zM510 160l375 422l-228 422h306l225 -422l-375 -422h-303z" />
<glyph unicode="&#xbc;" horiz-adv-x="1470" d="M-10 -174l997 1608h275l-998 -1608h-274zM176 655l88 506q-20 -4 -71 -4l22 152q25 0 77 41.5t60 79.5h156l-137 -775h-195zM694 211l467 563h172l-73 -418h96l-25 -145h-96l-39 -211h-195l37 211h-344zM965 356h100l27 156z" />
<glyph unicode="&#xbd;" horiz-adv-x="1460" d="M-14 -174l997 1608h274l-997 -1608h-274zM172 655l88 506q-20 -4 -72 -4l23 152q25 0 77 41.5t60 79.5h156l-137 -775h-195zM768 0q176 202 265.5 318t115 167t25.5 93q0 63 -54 63q-46 0 -95 -32.5t-74 -62t-36 -48.5l7 178q38 50 106 82.5t154 32.5q96 0 138 -50 t42 -118q0 -75 -52 -171.5t-169 -248.5h176l-37 -203h-512z" />
<glyph unicode="&#xbe;" horiz-adv-x="1796" d="M84 700l82 185q9 -21 51.5 -35t85.5 -14q141 0 141 88q0 77 -61 77h-135l41 148h69q54 0 79.5 25.5t25.5 50.5q0 27 -18 49t-62 22q-81 0 -123 -34l-6 133q26 22 83 36.5t101 14.5q64 0 110 -17t68.5 -46t32.5 -58t10 -61q0 -43 -15.5 -87t-28.5 -65t-19 -27 q1 -13 18 -58t17 -87q0 -94 -52.5 -164.5t-130 -103.5t-165.5 -33q-62 0 -126 22t-73 39zM305 -174l998 1608h274l-997 -1608h-275zM1018 211l467 563h172l-74 -418h96l-24 -145h-96l-39 -211h-195l37 211h-344zM1288 356h101l26 156z" />
<glyph unicode="&#xbf;" horiz-adv-x="878" d="M-35 -172q0 77 39.5 154t98 144.5t118.5 135.5t110 153.5t64 172.5l4 26h174q-10 -92 -14 -108q-13 -75 -55 -150.5t-90.5 -135t-96 -119.5t-79 -127t-31.5 -134q0 -74 43.5 -112.5t118.5 -38.5q142 0 264 133l22 -189q-62 -72 -152.5 -108.5t-187.5 -36.5 q-89 0 -159 31.5t-110.5 82t-60.5 108.5t-20 118zM387 770l45 254h254l-45 -254h-254z" />
<glyph unicode="&#xc0;" d="M-88 0l741 1434h246l236 -1434h-273l-55 346h-447l-176 -346h-272zM496 600h266l-60 420zM645 1733l37 213l336 -187l-27 -151z" />
<glyph unicode="&#xc1;" d="M-88 0l741 1434h246l236 -1434h-273l-55 346h-447l-176 -346h-272zM496 600h266l-60 420zM625 1608l26 151l402 187l-39 -213z" />
<glyph unicode="&#xc2;" d="M-88 0l741 1434h246l236 -1434h-273l-55 346h-447l-176 -346h-272zM496 600h266l-60 420zM518 1608l27 151l321 187l256 -187l-26 -151l-262 145z" />
<glyph unicode="&#xc3;" d="M-88 0l741 1434h246l236 -1434h-273l-55 346h-447l-176 -346h-272zM442 1667q25 97 110 153t179 56q42 0 75 -13.5t49.5 -29.5t39 -29.5t47.5 -13.5q42 0 79.5 31.5t45.5 64.5l156 -41q-25 -83 -100 -146t-173 -63q-47 0 -89 21.5t-77 43t-67 21.5q-37 0 -64.5 -29.5 t-40.5 -66.5zM496 600h266l-60 420z" />
<glyph unicode="&#xc4;" d="M-88 0l741 1434h246l236 -1434h-273l-55 346h-447l-176 -346h-272zM496 600h266l-60 420zM565 1626l39 217h199l-39 -217h-199zM854 1626l37 217h201l-39 -217h-199z" />
<glyph unicode="&#xc5;" d="M-88 0l741 1434h246l236 -1434h-273l-55 346h-447l-176 -346h-272zM496 600h266l-60 420zM627 1745q0 86 68.5 148.5t170.5 62.5q82 0 129 -45t47 -113q0 -86 -68 -147.5t-171 -61.5q-82 0 -129 44.5t-47 111.5zM752 1757q0 -32 18 -50.5t49 -18.5q41 0 70 28t29 70 q0 31 -19.5 50t-50.5 19q-40 0 -68 -28.5t-28 -69.5z" />
<glyph unicode="&#xc6;" horiz-adv-x="1726" d="M-115 0l924 1434h975l-45 -254h-578l-53 -306h444l-45 -253h-444l-66 -367h596l-45 -254h-858l62 346h-375l-217 -346h-275zM543 600h254l100 574z" />
<glyph unicode="&#xc7;" horiz-adv-x="1214" d="M86 588q0 186 65.5 349.5t177 278t264.5 180.5t322 66q101 0 202.5 -23t170.5 -61l-74 -250q-182 82 -333 82q-122 0 -219.5 -48.5t-159.5 -131.5t-94.5 -190t-32.5 -228q0 -389 334 -389q150 0 360 82l-14 -250q-83 -38 -192.5 -61t-207.5 -23q-264 0 -416.5 164 t-152.5 453zM256 -397l186 272l220 19l-248 -273z" />
<glyph unicode="&#xc8;" horiz-adv-x="1136" d="M53 0l252 1434h889l-45 -254h-619l-53 -306h477l-45 -253h-477l-65 -367h639l-45 -254h-908zM561 1733l37 213l336 -187l-27 -151z" />
<glyph unicode="&#xc9;" horiz-adv-x="1136" d="M53 0l252 1434h889l-45 -254h-619l-53 -306h477l-45 -253h-477l-65 -367h639l-45 -254h-908zM539 1608l26 151l402 187l-39 -213z" />
<glyph unicode="&#xca;" horiz-adv-x="1136" d="M53 0l252 1434h889l-45 -254h-619l-53 -306h477l-45 -253h-477l-65 -367h639l-45 -254h-908zM432 1608l27 151l321 187l256 -187l-26 -151l-262 145z" />
<glyph unicode="&#xcb;" horiz-adv-x="1136" d="M53 0l252 1434h889l-45 -254h-619l-53 -306h477l-45 -253h-477l-65 -367h639l-45 -254h-908zM481 1626l39 217h199l-39 -217h-199zM770 1626l37 217h201l-39 -217h-199z" />
<glyph unicode="&#xcc;" horiz-adv-x="579" d="M53 0l252 1434h262l-252 -1434h-262zM307 1733l37 213l336 -187l-27 -151z" />
<glyph unicode="&#xcd;" horiz-adv-x="579" d="M53 0l252 1434h262l-252 -1434h-262zM285 1608l26 151l402 187l-39 -213z" />
<glyph unicode="&#xce;" horiz-adv-x="579" d="M53 0l252 1434h262l-252 -1434h-262zM180 1608l27 151l321 187l256 -187l-26 -151l-262 145z" />
<glyph unicode="&#xcf;" horiz-adv-x="579" d="M53 0l252 1434h262l-252 -1434h-262zM227 1626l39 217h199l-39 -217h-199zM516 1626l37 217h201l-39 -217h-199z" />
<glyph unicode="&#xd0;" horiz-adv-x="1466" d="M8 612l35 193h178l111 629h518q259 0 413 -155.5t154 -426.5q0 -191 -64.5 -352t-176 -270t-261.5 -169.5t-319 -60.5h-516l108 612h-180zM387 252h254q154 0 265.5 75.5t165.5 204t54 295.5t-81 261t-240 94h-254l-66 -377h236l-33 -193h-237z" />
<glyph unicode="&#xd1;" horiz-adv-x="1409" d="M53 0l252 1434h256l410 -926l164 926h262l-254 -1434h-213l-441 983l-174 -983h-262zM516 1667q25 97 110 153t179 56q42 0 75 -13.5t49.5 -29.5t39 -29.5t47.5 -13.5q42 0 79.5 31.5t45.5 64.5l155 -41q-25 -84 -99.5 -146.5t-172.5 -62.5q-47 0 -89 21.5t-77 43 t-67 21.5q-37 0 -64.5 -29.5t-40.5 -66.5z" />
<glyph unicode="&#xd2;" horiz-adv-x="1519" d="M86 588q0 184 66 347.5t176.5 278.5t260.5 181.5t314 66.5q264 0 418 -164.5t154 -451.5q0 -184 -66 -348t-177 -278.5t-261 -181.5t-314 -67q-264 0 -417.5 164.5t-153.5 452.5zM375 610q0 -184 80.5 -285.5t242.5 -101.5q111 0 204 49.5t154 133t94.5 191.5t33.5 226 q0 183 -81 285t-243 102q-147 0 -259.5 -85.5t-169 -220.5t-56.5 -294zM774 1733l37 213l336 -187l-27 -151z" />
<glyph unicode="&#xd3;" horiz-adv-x="1519" d="M86 588q0 184 66 347.5t176.5 278.5t260.5 181.5t314 66.5q264 0 418 -164.5t154 -451.5q0 -184 -66 -348t-177 -278.5t-261 -181.5t-314 -67q-264 0 -417.5 164.5t-153.5 452.5zM375 610q0 -184 80.5 -285.5t242.5 -101.5q111 0 204 49.5t154 133t94.5 191.5t33.5 226 q0 183 -81 285t-243 102q-147 0 -259.5 -85.5t-169 -220.5t-56.5 -294zM752 1608l26 151l402 187l-39 -213z" />
<glyph unicode="&#xd4;" horiz-adv-x="1519" d="M86 588q0 184 66 347.5t176.5 278.5t260.5 181.5t314 66.5q264 0 418 -164.5t154 -451.5q0 -184 -66 -348t-177 -278.5t-261 -181.5t-314 -67q-264 0 -417.5 164.5t-153.5 452.5zM375 610q0 -184 80.5 -285.5t242.5 -101.5q111 0 204 49.5t154 133t94.5 191.5t33.5 226 q0 183 -81 285t-243 102q-147 0 -259.5 -85.5t-169 -220.5t-56.5 -294zM647 1608l27 151l321 187l256 -187l-26 -151l-262 145z" />
<glyph unicode="&#xd5;" horiz-adv-x="1519" d="M86 588q0 184 66 347.5t176.5 278.5t260.5 181.5t314 66.5q264 0 418 -164.5t154 -451.5q0 -184 -66 -348t-177 -278.5t-261 -181.5t-314 -67q-264 0 -417.5 164.5t-153.5 452.5zM375 610q0 -184 80.5 -285.5t242.5 -101.5q111 0 204 49.5t154 133t94.5 191.5t33.5 226 q0 183 -81 285t-243 102q-147 0 -259.5 -85.5t-169 -220.5t-56.5 -294zM573 1667q25 97 110 153t179 56q42 0 75 -13.5t49.5 -29.5t39 -29.5t47.5 -13.5q42 0 79.5 31.5t45.5 64.5l156 -41q-25 -83 -100 -146t-173 -63q-47 0 -89 21.5t-77 43t-67 21.5q-37 0 -64.5 -29.5 t-40.5 -66.5z" />
<glyph unicode="&#xd6;" horiz-adv-x="1519" d="M86 588q0 184 66 347.5t176.5 278.5t260.5 181.5t314 66.5q264 0 418 -164.5t154 -451.5q0 -184 -66 -348t-177 -278.5t-261 -181.5t-314 -67q-264 0 -417.5 164.5t-153.5 452.5zM375 610q0 -184 80.5 -285.5t242.5 -101.5q111 0 204 49.5t154 133t94.5 191.5t33.5 226 q0 183 -81 285t-243 102q-147 0 -259.5 -85.5t-169 -220.5t-56.5 -294zM696 1626l39 217h199l-39 -217h-199zM985 1626l37 217h201l-39 -217h-199z" />
<glyph unicode="&#xd7;" horiz-adv-x="905" d="M74 348l243 219l-165 219l149 125l166 -219l246 219l104 -125l-244 -219l168 -219l-151 -125l-166 219l-244 -219z" />
<glyph unicode="&#xd8;" horiz-adv-x="1517" d="M-14 -63l204 241q-104 147 -104 397q0 191 65.5 358t177.5 282t263 181t319 66q169 0 289 -69l62 73h276l-174 -206q52 -72 81.5 -178.5t29.5 -225.5q0 -191 -66 -357t-177.5 -281t-263 -181t-319.5 -66q-173 0 -299 74l-88 -108h-276zM373 596q0 -107 20 -182l623 764 q-56 32 -148 32q-153 0 -267 -84t-171 -222t-57 -308zM535 258q56 -35 157 -35q115 0 209.5 48.5t156 132.5t95 195t33.5 237q0 115 -25 192z" />
<glyph unicode="&#xd9;" horiz-adv-x="1423" d="M129 434q0 89 16 180l146 820h260l-129 -732q-21 -120 -21 -200q2 -135 57 -207t187 -72q93 0 162 36t113.5 105.5t71.5 149t46 188.5l129 732h263l-146 -820q-54 -301 -227 -472t-455 -171q-237 0 -355 120.5t-118 342.5zM727 1733l37 213l336 -187l-27 -151z" />
<glyph unicode="&#xda;" horiz-adv-x="1423" d="M129 434q0 89 16 180l146 820h260l-129 -732q-21 -120 -21 -200q2 -135 57 -207t187 -72q93 0 162 36t113.5 105.5t71.5 149t46 188.5l129 732h263l-146 -820q-54 -301 -227 -472t-455 -171q-237 0 -355 120.5t-118 342.5zM705 1608l26 151l402 187l-39 -213z" />
<glyph unicode="&#xdb;" horiz-adv-x="1423" d="M129 434q0 89 16 180l146 820h260l-129 -732q-21 -120 -21 -200q2 -135 57 -207t187 -72q93 0 162 36t113.5 105.5t71.5 149t46 188.5l129 732h263l-146 -820q-54 -301 -227 -472t-455 -171q-237 0 -355 120.5t-118 342.5zM600 1608l27 151l321 187l256 -187l-26 -151 l-263 145z" />
<glyph unicode="&#xdc;" horiz-adv-x="1423" d="M129 434q0 89 16 180l146 820h260l-129 -732q-21 -120 -21 -200q2 -135 57 -207t187 -72q93 0 162 36t113.5 105.5t71.5 149t46 188.5l129 732h263l-146 -820q-54 -301 -227 -472t-455 -171q-237 0 -355 120.5t-118 342.5zM649 1626l39 217h199l-39 -217h-199zM938 1626 l37 217h201l-39 -217h-199z" />
<glyph unicode="&#xdd;" horiz-adv-x="1234" d="M150 1434h278l234 -574l425 574h279l-618 -799l-113 -635h-260l110 635zM598 1608l27 151l401 187l-39 -213z" />
<glyph unicode="&#xde;" horiz-adv-x="1126" d="M53 0l252 1434h262l-47 -269h82q105 0 179.5 -6t143.5 -24.5t110.5 -50t66 -84t24.5 -126.5q0 -262 -158.5 -370.5t-500.5 -108.5h-84l-70 -395h-260zM418 592h147q90 0 149.5 18t88.5 53t40 73.5t11 92.5q0 72 -50 104t-173 32h-148z" />
<glyph unicode="&#xdf;" horiz-adv-x="1132" d="M25 -279l192 1094h-139l61 209h115l20 113q16 89 65.5 165.5t115 126.5t140 78.5t144.5 28.5q43 0 87.5 -11t88 -36.5t77 -62t54.5 -91.5t21 -121q0 -75 -22 -144.5t-54 -118t-63.5 -88t-53.5 -70t-22 -48.5q0 -19 18.5 -44.5t45 -55t53 -66.5t45 -92t18.5 -118 q0 -87 -27 -155.5t-73 -114t-111 -75t-136.5 -42.5t-152.5 -13q-59 0 -118 11l32 190q50 0 80.5 0.5t66 3t55.5 7.5t42 13.5t33.5 21.5t21.5 31t13.5 42t3.5 55q0 49 -19.5 95t-47 80.5t-55.5 67t-47.5 67t-19.5 67.5q0 37 25 75.5t60.5 76t71 80t60.5 103t25 128.5 q0 70 -33 102.5t-84 32.5q-65 0 -111.5 -48t-60.5 -124l-252 -1426h-249z" />
<glyph unicode="&#xe0;" horiz-adv-x="1196" d="M37 418q0 94 25.5 184.5t76.5 169.5t121 139t165.5 94.5t203.5 34.5q74 0 121 -16t88 -51l28 51h234l-119 -700q-8 -47 -8 -78q0 -40 19 -49t81 -9l-57 -208q-107 0 -161 10t-82.5 33t-55.5 75q-127 -118 -293 -118q-179 0 -283 122.5t-104 315.5zM301 438 q0 -117 49.5 -183.5t151.5 -66.5q65 0 115.5 28t80 71t48.5 100t25.5 108t6.5 103q0 114 -39 173.5t-133 59.5q-134 0 -219.5 -114t-85.5 -279zM621 1323l36 213l336 -186l-26 -152z" />
<glyph unicode="&#xe1;" horiz-adv-x="1196" d="M37 418q0 94 25.5 184.5t76.5 169.5t121 139t165.5 94.5t203.5 34.5q74 0 121 -16t88 -51l28 51h234l-119 -700q-8 -47 -8 -78q0 -40 19 -49t81 -9l-57 -208q-107 0 -161 10t-82.5 33t-55.5 75q-127 -118 -293 -118q-179 0 -283 122.5t-104 315.5zM301 438 q0 -117 49.5 -183.5t151.5 -66.5q65 0 115.5 28t80 71t48.5 100t25.5 108t6.5 103q0 114 -39 173.5t-133 59.5q-134 0 -219.5 -114t-85.5 -279zM598 1198l27 152l401 186l-39 -213z" />
<glyph unicode="&#xe2;" horiz-adv-x="1196" d="M37 418q0 94 25.5 184.5t76.5 169.5t121 139t165.5 94.5t203.5 34.5q74 0 121 -16t88 -51l28 51h234l-119 -700q-8 -47 -8 -78q0 -40 19 -49t81 -9l-57 -208q-107 0 -161 10t-82.5 33t-55.5 75q-127 -118 -293 -118q-179 0 -283 122.5t-104 315.5zM301 438 q0 -117 49.5 -183.5t151.5 -66.5q65 0 115.5 28t80 71t48.5 100t25.5 108t6.5 103q0 114 -39 173.5t-133 59.5q-134 0 -219.5 -114t-85.5 -279zM494 1198l26 152l322 186l256 -186l-27 -152l-262 145z" />
<glyph unicode="&#xe3;" horiz-adv-x="1196" d="M37 418q0 94 25.5 184.5t76.5 169.5t121 139t165.5 94.5t203.5 34.5q74 0 121 -16t88 -51l28 51h234l-119 -700q-8 -47 -8 -78q0 -40 19 -49t81 -9l-57 -208q-107 0 -161 10t-82.5 33t-55.5 75q-127 -118 -293 -118q-179 0 -283 122.5t-104 315.5zM301 438 q0 -117 49.5 -183.5t151.5 -66.5q65 0 115.5 28t80 71t48.5 100t25.5 108t6.5 103q0 114 -39 173.5t-133 59.5q-134 0 -219.5 -114t-85.5 -279zM414 1257q25 97 110 153t178 56q42 0 75 -13.5t49.5 -29.5t39 -29.5t47.5 -13.5q42 0 79.5 32t45.5 65l156 -41 q-25 -84 -99.5 -146.5t-172.5 -62.5q-47 0 -89 21.5t-77.5 43t-67.5 21.5q-37 0 -64 -29.5t-40 -66.5z" />
<glyph unicode="&#xe4;" horiz-adv-x="1196" d="M37 418q0 94 25.5 184.5t76.5 169.5t121 139t165.5 94.5t203.5 34.5q74 0 121 -16t88 -51l28 51h234l-119 -700q-8 -47 -8 -78q0 -40 19 -49t81 -9l-57 -208q-107 0 -161 10t-82.5 33t-55.5 75q-127 -118 -293 -118q-179 0 -283 122.5t-104 315.5zM301 438 q0 -117 49.5 -183.5t151.5 -66.5q65 0 115.5 28t80 71t48.5 100t25.5 108t6.5 103q0 114 -39 173.5t-133 59.5q-134 0 -219.5 -114t-85.5 -279zM543 1217l39 217h198l-39 -217h-198zM831 1217l37 217h201l-39 -217h-199z" />
<glyph unicode="&#xe5;" horiz-adv-x="1196" d="M37 418q0 94 25.5 184.5t76.5 169.5t121 139t165.5 94.5t203.5 34.5q74 0 121 -16t88 -51l28 51h234l-119 -700q-8 -47 -8 -78q0 -40 19 -49t81 -9l-57 -208q-107 0 -161 10t-82.5 33t-55.5 75q-127 -118 -293 -118q-179 0 -283 122.5t-104 315.5zM301 438 q0 -117 49.5 -183.5t151.5 -66.5q65 0 115.5 28t80 71t48.5 100t25.5 108t6.5 103q0 114 -39 173.5t-133 59.5q-134 0 -219.5 -114t-85.5 -279zM604 1335q0 86 69 148.5t171 62.5q82 0 129 -44.5t47 -112.5q0 -86 -68.5 -147.5t-171.5 -61.5q-82 0 -129 44t-47 111z M729 1348q0 -32 18.5 -51t49.5 -19q40 0 69 28t29 70q0 31 -19.5 50.5t-50.5 19.5q-40 0 -68 -28.5t-28 -69.5z" />
<glyph unicode="&#xe6;" horiz-adv-x="1572" d="M-18 209q0 74 24 136t62.5 105t93.5 77t110 54t118.5 34t113 20t100.5 8q0 42 -2.5 67t-10 49t-22.5 36t-40.5 19t-63.5 7q-117 0 -289 -78l14 207q197 90 379 90q124 0 184.5 -39.5t77.5 -142.5q34 70 140 126t229 56q148 0 236 -96.5t88 -257.5q0 -56 -11 -105 t-40 -124h-619q0 -37 6 -72q16 -98 77 -147.5t144 -49.5q69 0 165 25t159 59l-29 -215q-150 -77 -342 -77q-146 0 -237 51.5t-121 140.5q-95 -98 -191 -150.5t-223 -52.5q-135 0 -207.5 64t-72.5 176zM256 262q0 -43 26.5 -69.5t67.5 -26.5q69 0 139.5 67t90.5 181 q6 35 8 57q-53 -1 -108 -13t-106.5 -35.5t-84.5 -65.5t-33 -95zM889 629h403q4 18 4 53q0 65 -32.5 107t-108.5 42q-88 0 -161.5 -56.5t-104.5 -145.5z" />
<glyph unicode="&#xe7;" horiz-adv-x="894" d="M37 412q0 122 40 234t113.5 200.5t189 141t255.5 52.5q167 0 266 -75l-59 -217q-106 83 -230 83q-141 0 -226 -113.5t-85 -279.5q0 -118 48.5 -184t150.5 -66q121 0 258 84l-17 -217q-127 -75 -290 -75q-108 0 -189.5 33.5t-129.5 93t-71.5 136t-23.5 169.5zM154 -397 l186 272l219 19l-248 -273z" />
<glyph unicode="&#xe8;" horiz-adv-x="999" d="M37 420q0 118 41.5 229t115 198t183.5 140t237 53q160 0 247 -80.5t87 -216.5q0 -90 -39.5 -157t-109.5 -105t-154.5 -55.5t-185.5 -17.5q-102 0 -156 12q5 -81 41 -135t85.5 -75.5t109.5 -21.5q68 0 161 24.5t160 59.5l-29 -215q-154 -77 -342 -77q-223 0 -337.5 122.5 t-114.5 317.5zM324 582q38 -9 94 -9q172 0 244.5 45t72.5 113q0 32 -14.5 54t-38 31t-41.5 12t-37 3q-57 0 -107 -25t-83.5 -65t-56 -80t-33.5 -79zM459 1323l37 213l335 -186l-26 -152z" />
<glyph unicode="&#xe9;" horiz-adv-x="999" d="M37 420q0 118 41.5 229t115 198t183.5 140t237 53q160 0 247 -80.5t87 -216.5q0 -90 -39.5 -157t-109.5 -105t-154.5 -55.5t-185.5 -17.5q-102 0 -156 12q5 -81 41 -135t85.5 -75.5t109.5 -21.5q68 0 161 24.5t160 59.5l-29 -215q-154 -77 -342 -77q-223 0 -337.5 122.5 t-114.5 317.5zM324 582q38 -9 94 -9q172 0 244.5 45t72.5 113q0 32 -14.5 54t-38 31t-41.5 12t-37 3q-57 0 -107 -25t-83.5 -65t-56 -80t-33.5 -79zM438 1198l27 152l401 186l-39 -213z" />
<glyph unicode="&#xea;" horiz-adv-x="999" d="M37 420q0 118 41.5 229t115 198t183.5 140t237 53q160 0 247 -80.5t87 -216.5q0 -90 -39.5 -157t-109.5 -105t-154.5 -55.5t-185.5 -17.5q-102 0 -156 12q5 -81 41 -135t85.5 -75.5t109.5 -21.5q68 0 161 24.5t160 59.5l-29 -215q-154 -77 -342 -77q-223 0 -337.5 122.5 t-114.5 317.5zM324 582q38 -9 94 -9q172 0 244.5 45t72.5 113q0 32 -14.5 54t-38 31t-41.5 12t-37 3q-57 0 -107 -25t-83.5 -65t-56 -80t-33.5 -79zM332 1198l26 152l322 186l256 -186l-27 -152l-262 145z" />
<glyph unicode="&#xeb;" horiz-adv-x="999" d="M37 420q0 118 41.5 229t115 198t183.5 140t237 53q160 0 247 -80.5t87 -216.5q0 -90 -39.5 -157t-109.5 -105t-154.5 -55.5t-185.5 -17.5q-102 0 -156 12q5 -81 41 -135t85.5 -75.5t109.5 -21.5q68 0 161 24.5t160 59.5l-29 -215q-154 -77 -342 -77q-223 0 -337.5 122.5 t-114.5 317.5zM324 582q38 -9 94 -9q172 0 244.5 45t72.5 113q0 32 -14.5 54t-38 31t-41.5 12t-37 3q-57 0 -107 -25t-83.5 -65t-56 -80t-33.5 -79zM379 1217l39 217h198l-38 -217h-199zM668 1217l37 217h200l-39 -217h-198z" />
<glyph unicode="&#xec;" horiz-adv-x="495" d="M14 0l181 1024h254l-181 -1024h-254zM193 1323l36 213l336 -186l-26 -152z" />
<glyph unicode="&#xed;" horiz-adv-x="495" d="M14 0l181 1024h254l-181 -1024h-254zM170 1198l27 152l401 186l-39 -213z" />
<glyph unicode="&#xee;" horiz-adv-x="495" d="M14 0l181 1024h254l-181 -1024h-254zM63 1198l27 152l322 186l256 -186l-27 -152l-262 145z" />
<glyph unicode="&#xef;" horiz-adv-x="495" d="M14 0l181 1024h254l-181 -1024h-254zM113 1217l39 217h198l-39 -217h-198zM401 1217l37 217h201l-39 -217h-199z" />
<glyph unicode="&#xf0;" horiz-adv-x="1024" d="M4 348q0 92 36 185t99 168.5t160 123t209 47.5q125 0 211 -79q0 79 -19 179t-55 130q-144 -103 -289 -117l-53 150q106 0 250 90q-96 99 -213 102l102 109q151 -3 267 -107q95 83 131 127l133 -33q-96 -118 -170 -192q65 -95 104 -239.5t39 -299.5q0 -118 -19 -217.5 t-51 -172t-77 -130t-95 -94.5t-107 -61t-110.5 -34t-107.5 -10q-167 0 -271 105t-104 270zM248 391q0 -92 42.5 -151.5t129.5 -59.5q45 0 89 17.5t82.5 52.5t62.5 95.5t24 137.5q0 91 -45 141t-133 50q-77 0 -136 -43t-87.5 -106.5t-28.5 -133.5z" />
<glyph unicode="&#xf1;" horiz-adv-x="1097" d="M14 0l181 1024h223l10 -61q55 39 108.5 58t127.5 19q162 0 245.5 -92t83.5 -254q0 -67 -110 -694h-256q106 605 106 659q0 90 -34.5 131t-110.5 41q-101 0 -189 -88l-131 -743h-254zM289 1257q25 97 110 153t179 56q42 0 74.5 -13.5t49 -29.5t39 -29.5t47.5 -13.5 q42 0 79.5 32t45.5 65l156 -41q-25 -84 -99.5 -146.5t-172.5 -62.5q-47 0 -89 21.5t-77.5 43t-67.5 21.5q-37 0 -64 -29.5t-40 -66.5z" />
<glyph unicode="&#xf2;" horiz-adv-x="1124" d="M35 420q0 161 75.5 302.5t214 229.5t308.5 88q104 0 186 -34.5t133.5 -95t78 -139.5t26.5 -171q0 -161 -75.5 -302.5t-214 -229.5t-308.5 -88q-104 0 -186 34.5t-133.5 95t-78 139.5t-26.5 171zM297 440q0 -119 50 -185.5t147 -66.5q87 0 156.5 54.5t107 144.5t37.5 195 q0 118 -50.5 183.5t-146.5 65.5q-130 0 -215.5 -114t-85.5 -277zM504 1323l37 213l336 -186l-27 -152z" />
<glyph unicode="&#xf3;" horiz-adv-x="1124" d="M35 420q0 161 75.5 302.5t214 229.5t308.5 88q104 0 186 -34.5t133.5 -95t78 -139.5t26.5 -171q0 -161 -75.5 -302.5t-214 -229.5t-308.5 -88q-104 0 -186 34.5t-133.5 95t-78 139.5t-26.5 171zM297 440q0 -119 50 -185.5t147 -66.5q87 0 156.5 54.5t107 144.5t37.5 195 q0 118 -50.5 183.5t-146.5 65.5q-130 0 -215.5 -114t-85.5 -277zM481 1198l27 152l401 186l-39 -213z" />
<glyph unicode="&#xf4;" horiz-adv-x="1124" d="M35 420q0 161 75.5 302.5t214 229.5t308.5 88q104 0 186 -34.5t133.5 -95t78 -139.5t26.5 -171q0 -161 -75.5 -302.5t-214 -229.5t-308.5 -88q-104 0 -186 34.5t-133.5 95t-78 139.5t-26.5 171zM297 440q0 -119 50 -185.5t147 -66.5q87 0 156.5 54.5t107 144.5t37.5 195 q0 118 -50.5 183.5t-146.5 65.5q-130 0 -215.5 -114t-85.5 -277zM377 1198l26 152l322 186l256 -186l-27 -152l-262 145z" />
<glyph unicode="&#xf5;" horiz-adv-x="1124" d="M35 420q0 161 75.5 302.5t214 229.5t308.5 88q104 0 186 -34.5t133.5 -95t78 -139.5t26.5 -171q0 -161 -75.5 -302.5t-214 -229.5t-308.5 -88q-104 0 -186 34.5t-133.5 95t-78 139.5t-26.5 171zM297 440q0 -119 50 -185.5t147 -66.5q87 0 156.5 54.5t107 144.5t37.5 195 q0 118 -50.5 183.5t-146.5 65.5q-130 0 -215.5 -114t-85.5 -277zM303 1257q25 97 110 153t179 56q42 0 75 -13.5t49.5 -29.5t39 -29.5t47.5 -13.5q42 0 79.5 32t45.5 65l155 -41q-25 -84 -99.5 -146.5t-172.5 -62.5q-47 0 -89 21.5t-77 43t-67 21.5q-37 0 -64.5 -29.5 t-40.5 -66.5z" />
<glyph unicode="&#xf6;" horiz-adv-x="1124" d="M35 420q0 161 75.5 302.5t214 229.5t308.5 88q104 0 186 -34.5t133.5 -95t78 -139.5t26.5 -171q0 -161 -75.5 -302.5t-214 -229.5t-308.5 -88q-104 0 -186 34.5t-133.5 95t-78 139.5t-26.5 171zM297 440q0 -119 50 -185.5t147 -66.5q87 0 156.5 54.5t107 144.5t37.5 195 q0 118 -50.5 183.5t-146.5 65.5q-130 0 -215.5 -114t-85.5 -277zM426 1217l39 217h199l-39 -217h-199zM715 1217l37 217h200l-39 -217h-198z" />
<glyph unicode="&#xf7;" horiz-adv-x="1112" d="M78 471l35 193h903l-33 -193h-905zM319 41l48 266h254l-48 -266h-254zM457 827l47 267h256l-47 -267h-256z" />
<glyph unicode="&#xf8;" horiz-adv-x="1116" d="M35 416q0 122 44.5 235t122 199.5t191 138t244.5 51.5q67 0 123 -16l43 70h225l-100 -154q59 -58 91 -148t32 -192q0 -120 -44.5 -232.5t-122 -198.5t-191 -137.5t-244.5 -51.5q-71 0 -130 16l-43 -70h-219l99 154q-58 54 -89.5 144.5t-31.5 191.5zM295 426 q0 -69 10 -121l324 522q-8 4 -29 4q-135 0 -220 -115.5t-85 -289.5zM451 193q10 -5 34 -5q134 0 218.5 115t84.5 285q0 78 -12 127z" />
<glyph unicode="&#xf9;" horiz-adv-x="1107" d="M72 330q0 67 110 694h254q-106 -607 -106 -659q0 -172 151 -172q110 0 193 86l133 745h254l-180 -1024h-240l8 61q-64 -42 -119.5 -61.5t-128.5 -19.5q-163 0 -246 93t-83 257zM489 1323l37 213l336 -186l-26 -152z" />
<glyph unicode="&#xfa;" horiz-adv-x="1107" d="M72 330q0 67 110 694h254q-106 -607 -106 -659q0 -172 151 -172q110 0 193 86l133 745h254l-180 -1024h-240l8 61q-64 -42 -119.5 -61.5t-128.5 -19.5q-163 0 -246 93t-83 257zM467 1198l27 152l401 186l-39 -213z" />
<glyph unicode="&#xfb;" horiz-adv-x="1107" d="M72 330q0 67 110 694h254q-106 -607 -106 -659q0 -172 151 -172q110 0 193 86l133 745h254l-180 -1024h-240l8 61q-64 -42 -119.5 -61.5t-128.5 -19.5q-163 0 -246 93t-83 257zM362 1198l27 152l322 186l256 -186l-27 -152l-262 145z" />
<glyph unicode="&#xfc;" horiz-adv-x="1107" d="M72 330q0 67 110 694h254q-106 -607 -106 -659q0 -172 151 -172q110 0 193 86l133 745h254l-180 -1024h-240l8 61q-64 -42 -119.5 -61.5t-128.5 -19.5q-163 0 -246 93t-83 257zM412 1217l39 217h198l-39 -217h-198zM700 1217l37 217h201l-39 -217h-199z" />
<glyph unicode="&#xfd;" horiz-adv-x="1071" d="M-6 -496l317 564l-241 956h282l127 -659l371 659h283l-887 -1520h-252zM449 1198l26 152l402 186l-39 -213z" />
<glyph unicode="&#xfe;" horiz-adv-x="1140" d="M-72 -496l359 2032h254l-99 -563q103 67 230 67q130 0 222 -59t134.5 -155t42.5 -218t-41 -235t-114.5 -200.5t-185.5 -140t-245 -52.5q-69 0 -114.5 16.5t-91.5 52.5l-97 -545h-254zM338 418q0 -106 42 -168t126 -62q133 0 218 115t85 283q0 112 -49 178.5t-139 66.5 q-92 0 -158 -60t-95.5 -151t-29.5 -202z" />
<glyph unicode="&#xff;" horiz-adv-x="1071" d="M-6 -496l317 564l-241 956h282l127 -659l371 659h283l-887 -1520h-252zM391 1217l39 217h199l-39 -217h-199zM680 1217l37 217h201l-39 -217h-199z" />
<glyph unicode="&#x152;" horiz-adv-x="2107" d="M86 578q0 191 66 357t177.5 281t263.5 180.5t320 65.5q248 0 383 -141l21 113h848l-45 -254h-578l-53 -306h444l-45 -253h-444l-66 -367h596l-45 -254h-866l20 113q-188 -142 -432 -142q-256 0 -410.5 166t-154.5 441zM377 602q0 -173 80.5 -276t236.5 -103q152 0 266 84 t171 220.5t57 303.5q0 173 -81.5 276t-238.5 103q-152 0 -265 -84t-169.5 -220.5t-56.5 -303.5z" />
<glyph unicode="&#x153;" horiz-adv-x="1769" d="M35 418q0 121 44.5 234t122 199t191 137.5t244.5 51.5q222 0 340 -161q161 161 379 161q164 0 264 -100t100 -266q0 -59 -12 -104.5t-39 -112.5h-629q0 -33 7 -68q18 -101 81.5 -151t155.5 -50q66 0 158.5 25t159.5 59l-27 -215q-158 -77 -348 -77q-255 0 -375 165 q-176 -165 -401 -165q-133 0 -228.5 60t-141.5 157.5t-46 220.5zM297 434q0 -112 49.5 -179t140.5 -67q132 0 219 114.5t87 283.5q0 111 -50.5 178t-142.5 67q-133 0 -218 -114.5t-85 -282.5zM1077 629h381q6 30 6 59q0 60 -31 101.5t-106 41.5q-89 0 -152.5 -55t-97.5 -147 z" />
<glyph unicode="&#x178;" horiz-adv-x="1234" d="M150 1434h278l234 -574l425 574h279l-618 -799l-113 -635h-260l110 635zM543 1626l39 217h198l-39 -217h-198zM831 1626l37 217h201l-39 -217h-199z" />
<glyph unicode="&#x2c6;" horiz-adv-x="876" d="M360 1198l27 152l322 186l256 -186l-27 -152l-262 145z" />
<glyph unicode="&#x2dc;" horiz-adv-x="1038" d="M367 1257q25 97 110 153t178 56q42 0 75 -13.5t49.5 -29.5t39 -29.5t47.5 -13.5q42 0 79.5 32t45.5 65l156 -41q-25 -83 -100 -146t-173 -63q-47 0 -89 21.5t-77 43t-67 21.5q-37 0 -64 -29.5t-40 -66.5z" />
<glyph unicode="&#x2000;" horiz-adv-x="978" />
<glyph unicode="&#x2001;" horiz-adv-x="1956" />
<glyph unicode="&#x2002;" horiz-adv-x="978" />
<glyph unicode="&#x2003;" horiz-adv-x="1956" />
<glyph unicode="&#x2004;" horiz-adv-x="652" />
<glyph unicode="&#x2005;" horiz-adv-x="489" />
<glyph unicode="&#x2006;" horiz-adv-x="326" />
<glyph unicode="&#x2007;" horiz-adv-x="326" />
<glyph unicode="&#x2008;" horiz-adv-x="244" />
<glyph unicode="&#x2009;" horiz-adv-x="391" />
<glyph unicode="&#x200a;" horiz-adv-x="108" />
<glyph unicode="&#x2010;" horiz-adv-x="835" d="M90 471l35 193h608l-33 -193h-610z" />
<glyph unicode="&#x2011;" horiz-adv-x="835" d="M90 471l35 193h608l-33 -193h-610z" />
<glyph unicode="&#x2012;" horiz-adv-x="835" d="M90 471l35 193h608l-33 -193h-610z" />
<glyph unicode="&#x2013;" horiz-adv-x="991" d="M90 471l35 193h762l-35 -193h-762z" />
<glyph unicode="&#x2014;" horiz-adv-x="1169" d="M90 471l35 193h942l-33 -193h-944z" />
<glyph unicode="&#x2018;" horiz-adv-x="432" d="M166 1044l47 267l240 225l45 -29l-95 -176l62 -20l-47 -267h-252z" />
<glyph unicode="&#x2019;" horiz-adv-x="397" d="M168 1073l96 176l-61 21l47 266h250l-45 -266l-240 -226z" />
<glyph unicode="&#x201a;" horiz-adv-x="479" d="M-27 -197l97 177l-62 20l47 266h250l-45 -266l-240 -225z" />
<glyph unicode="&#x201c;" horiz-adv-x="843" d="M166 1044l47 267l240 225l45 -29l-95 -176l62 -20l-47 -267h-252zM580 1044l47 267l237 225l47 -29l-94 -176l60 -20l-48 -267h-249z" />
<glyph unicode="&#x201d;" horiz-adv-x="811" d="M168 1073l96 176l-61 21l47 266h250l-45 -266l-240 -226zM582 1073l94 176l-62 21l48 266h251l-47 -266l-237 -226z" />
<glyph unicode="&#x201e;" horiz-adv-x="931" d="M-27 -197l97 177l-62 20l47 266h250l-45 -266l-240 -225zM426 -197l94 177l-59 20l45 266h252l-47 -266l-238 -225z" />
<glyph unicode="&#x2022;" horiz-adv-x="598" d="M74 537q0 102 79.5 179t178.5 77q77 0 127.5 -55.5t50.5 -135.5q0 -102 -79.5 -179t-178.5 -77q-77 0 -127.5 55.5t-50.5 135.5z" />
<glyph unicode="&#x2026;" horiz-adv-x="1409" d="M8 0l47 266h254l-47 -266h-254zM473 0l45 266h256l-47 -266h-254zM936 0l47 266h254l-47 -266h-254z" />
<glyph unicode="&#x202f;" horiz-adv-x="391" />
<glyph unicode="&#x2039;" horiz-adv-x="702" d="M25 582l370 422h301l-370 -422l223 -422h-301z" />
<glyph unicode="&#x203a;" horiz-adv-x="702" d="M-2 160l371 422l-222 422h302l221 -422l-371 -422h-301z" />
<glyph unicode="&#x205f;" horiz-adv-x="489" />
<glyph unicode="&#x20ac;" horiz-adv-x="1392" d="M35 428l92 176h178q2 33 21 141h-179l86 166h144q92 225 277.5 356.5t410.5 131.5q207 0 344 -76l-70 -231q-85 41 -156 61.5t-157 20.5q-132 0 -228.5 -69.5t-154.5 -193.5h492l-91 -166h-458q-17 -119 -17 -141h473l-92 -176h-354q59 -168 268 -168q87 0 165.5 20.5 t178.5 61.5l-12 -231q-165 -76 -371 -76q-200 0 -334.5 104.5t-171.5 288.5h-284z" />
<glyph unicode="&#x2122;" horiz-adv-x="1470" d="M184 1274l29 160h559l-49 -160h-182l-105 -584h-166l103 584h-189zM621 690l227 744h104l121 -304l227 304h107l-35 -744h-172l27 434l-189 -254h-22l-98 254l-127 -434h-170z" />
<glyph unicode="&#x25fc;" horiz-adv-x="1024" d="M0 0v1024h1024v-1024h-1024z" />
</font>
</defs>
</svg>
