<?xml version="1.0" standalone="no"?>
<!DOCTYPE svg PUBLIC "-//W3C//DTD SVG 1.1//EN" "http://www.w3.org/Graphics/SVG/1.1/DTD/svg11.dtd" >
<svg xmlns="http://www.w3.org/2000/svg">
<metadata></metadata>
<defs>
<font id="cabinmedium" horiz-adv-x="1054" >
<font-face units-per-em="2048" ascent="1638" descent="-410" />
<missing-glyph horiz-adv-x="460" />
<glyph horiz-adv-x="2048" />
<glyph horiz-adv-x="2048" />
<glyph unicode="&#xd;" horiz-adv-x="2048" />
<glyph unicode=" "  horiz-adv-x="460" />
<glyph unicode="&#x09;" horiz-adv-x="460" />
<glyph unicode="&#xa0;" horiz-adv-x="460" />
<glyph unicode="!" horiz-adv-x="499" d="M123 1536h254l-55 -1126h-144zM150 0v203h200v-203h-200z" />
<glyph unicode="&#x22;" horiz-adv-x="821" d="M80 1536h213l-41 -614h-131zM530 1536h211l-41 -614h-129z" />
<glyph unicode="#" horiz-adv-x="1443" d="M66 438l86 197h233l86 223h-254l62 184h262l151 392h174l-151 -392h260l151 392h174l-151 -392h231l-63 -184h-236l-88 -223h260l-88 -197h-245l-177 -461h-176l176 461h-258l-176 -461h-174l174 461h-243zM559 635h258l88 223h-258z" />
<glyph unicode="$" horiz-adv-x="1056" d="M84 973q0 53 19.5 103t61 96.5t118.5 79t180 42.5l-35 238h197l-33 -238q101 -6 191.5 -28.5t136.5 -48.5l-19 -209q-213 102 -346 102q-48 0 -88 -5t-76.5 -17.5t-57 -35.5t-20.5 -55q0 -38 29 -67t76 -46.5t107.5 -36.5t123.5 -35.5t123.5 -45t107.5 -63t76 -92 t29 -130.5q0 -38 -8 -73.5t-33.5 -77.5t-66.5 -73.5t-114.5 -57t-170.5 -33.5l33 -232h-197l35 230q-239 12 -361 80l29 235q64 -53 162 -88t221 -35q106 0 162.5 28t56.5 95q0 47 -36 82t-93 57.5t-126 43t-138.5 45.5t-126.5 57.5t-93 85.5t-36 123z" />
<glyph unicode="%" horiz-adv-x="1718" d="M70 1055q0 179 89.5 284t221.5 105q133 0 217 -99t84 -272q0 -181 -86 -285t-225 -104q-136 0 -218.5 99.5t-82.5 271.5zM201 1055q0 -116 49.5 -183t122.5 -67q79 0 129.5 71.5t50.5 196.5q0 114 -51.5 182t-122.5 68q-74 0 -126 -72t-52 -196zM319 -25l863 1459h172 l-860 -1459h-175zM1032 350q0 177 91 283t223 106q134 0 219.5 -100.5t85.5 -271.5q0 -181 -87.5 -286.5t-228.5 -105.5q-136 0 -219.5 101t-83.5 274zM1155 350q0 -124 48.5 -190t129.5 -66q88 0 138.5 70t50.5 203q0 122 -52.5 191t-130.5 69q-77 0 -130.5 -74t-53.5 -203 z" />
<glyph unicode="&#x26;" horiz-adv-x="1259" d="M70 336q0 123 64 223.5t192 190.5q-154 190 -154 350q0 154 117.5 247t285.5 93q149 0 227.5 -74.5t78.5 -196.5q0 -69 -26.5 -132.5t-76.5 -117.5t-100.5 -94.5t-118.5 -85.5l354 -374q30 54 44 158t16 196h192q-5 -303 -121 -500l191 -219h-225l-80 86 q-85 -71 -174 -102t-209 -31q-123 0 -216.5 30.5t-149.5 84t-83.5 121t-27.5 147.5zM276 352q0 -105 69.5 -173t215.5 -68q168 0 262 104l-401 418q-67 -54 -106.5 -126t-39.5 -155zM367 1094q0 -118 106 -244q49 37 67 51t53 43.5t48 46.5t31 43t24 50.5t6 52.5 q0 69 -39 105t-108 36q-80 0 -134 -48t-54 -136z" />
<glyph unicode="'" horiz-adv-x="385" d="M82 1536h221l-39 -614h-143z" />
<glyph unicode="(" horiz-adv-x="544" d="M82 629q0 306 57 517t170 390h187q-246 -408 -246 -907q0 -500 246 -908h-187q-113 179 -170 390t-57 518z" />
<glyph unicode=")" horiz-adv-x="544" d="M49 -279q246 408 246 908q0 499 -246 907h187q113 -179 170 -390t57 -517q0 -307 -57 -518t-170 -390h-187z" />
<glyph unicode="*" horiz-adv-x="884" d="M66 1292l63 113l293 -191l-43 320h129l-47 -320l295 191l63 -115l-323 -119l235 -219l-92 -88l-195 275l-194 -281l-92 88l231 221z" />
<glyph unicode="+" horiz-adv-x="944" d="M92 481v183h293v262h172v-262h293v-183h-293v-272h-172v272h-293z" />
<glyph unicode="," horiz-adv-x="452" d="M115 -197l69 179l-67 18v207h221v-207l-174 -223z" />
<glyph unicode="-" horiz-adv-x="864" d="M115 481v183h635v-183h-635z" />
<glyph unicode="." horiz-adv-x="438" d="M115 0v207h209v-207h-209z" />
<glyph unicode="/" horiz-adv-x="1097" d="M37 -174l764 1608h229l-766 -1608h-227z" />
<glyph unicode="0" horiz-adv-x="1454" d="M125 692q0 170 47.5 315t130 244t195.5 155t241 56q168 0 302 -91t211 -258.5t77 -381.5q0 -346 -168 -553t-446 -207q-265 0 -427.5 197t-162.5 524zM350 692q0 -259 101 -391.5t268 -132.5q177 0 283 140.5t106 422.5q0 255 -107.5 396t-265.5 141q-76 0 -144.5 -36.5 t-122.5 -105.5t-86 -181.5t-32 -252.5z" />
<glyph unicode="1" horiz-adv-x="735" d="M78 1210q79 24 164.5 89t124.5 135h165v-1434h-223v1122q-105 -82 -203 -108z" />
<glyph unicode="2" horiz-adv-x="1077" d="M104 1262q13 24 43.5 54.5t79.5 65t125.5 57.5t161.5 23q87 0 156.5 -24t113.5 -62.5t73.5 -90.5t41.5 -105t12 -109q0 -141 -95.5 -340.5t-321.5 -527.5h471v-203h-859q194 278 317.5 470t180 303t74.5 167.5t18 103.5q0 106 -62 165t-169 59q-62 0 -117 -19.5 t-97.5 -55t-67.5 -62.5t-52 -64z" />
<glyph unicode="3" horiz-adv-x="1116" d="M80 80l53 203q173 -109 332 -109q45 0 85 7t79.5 25.5t67.5 47t45.5 75t17.5 105.5q0 55 -13 97.5t-45 81.5t-96 60t-157 21h-162l20 172h82q172 0 245 57t73 162q0 185 -232 185q-175 0 -268 -78l-37 176q35 35 122 64.5t208 29.5q103 0 183 -24t127 -61.5t77 -88.5 t40.5 -99t10.5 -99q0 -90 -39 -160.5t-131 -134.5q221 -91 221 -355q0 -114 -44 -205.5t-118 -148t-166 -86t-194 -29.5q-123 0 -239.5 39t-147.5 70z" />
<glyph unicode="4" horiz-adv-x="1161" d="M27 389l659 1045h182v-856h174v-189h-174v-389h-225v389h-616zM348 578h295v489z" />
<glyph unicode="5" horiz-adv-x="1107" d="M104 63l52 201q62 -41 143 -66.5t156 -25.5q133 0 226 81.5t93 217.5q0 120 -91.5 180t-311.5 60h-191l88 723h654l-23 -203h-461l-39 -330q320 -3 461 -104t141 -318q0 -116 -45.5 -213.5t-121 -161t-173 -98.5t-202.5 -35q-107 0 -221.5 32.5t-133.5 59.5z" />
<glyph unicode="6" horiz-adv-x="1159" d="M125 500q0 155 43 303t111 259t150 196.5t163 130t147 45.5l148 -86q-71 -24 -145 -70.5t-150.5 -118t-137.5 -178.5t-87 -231q86 110 270 110q189 0 311.5 -106.5t122.5 -307.5q0 -97 -35.5 -183.5t-99 -151.5t-157.5 -102.5t-206 -37.5q-97 0 -176 29t-141 89.5 t-96.5 165t-34.5 245.5zM346 414q0 -62 22 -111t58.5 -78.5t80 -45t91.5 -15.5q121 0 190.5 82.5t69.5 195.5q0 42 -11.5 80.5t-37 75t-74 58.5t-114.5 22q-117 0 -196 -71.5t-79 -192.5z" />
<glyph unicode="7" horiz-adv-x="1034" d="M82 1231v203h932l-613 -1434h-229l526 1231h-616z" />
<glyph unicode="8" horiz-adv-x="1241" d="M119 385q0 235 256 385q-174 138 -174 334q0 56 12.5 105t43.5 96t78.5 80.5t122.5 54t171 20.5q91 0 163 -18.5t118 -49t76.5 -73t43 -88t12.5 -96.5q0 -107 -49 -181.5t-168 -160.5q297 -113 297 -383q0 -62 -18.5 -122.5t-60 -118t-100.5 -101.5t-147 -70.5 t-194 -26.5q-99 0 -181 24t-137 64t-93 93.5t-55 112t-17 120.5zM344 391q0 -114 70 -172.5t198 -58.5q125 0 205 69t80 179q0 107 -77 179.5t-195 100.5q-124 -23 -202.5 -99t-78.5 -198zM397 1087q0 -69 54.5 -128t156.5 -95q114 33 168.5 98t54.5 144q0 78 -54 124 t-159 46q-106 0 -163.5 -51t-57.5 -138z" />
<glyph unicode="9" horiz-adv-x="1163" d="M90 983q0 204 137 341.5t361 137.5q94 0 171.5 -27.5t141 -86.5t99.5 -164t36 -248q0 -141 -29 -271.5t-77 -231t-110.5 -184t-129.5 -137t-133 -83t-123 -29.5l-155 86q57 19 117.5 50.5t128.5 84.5t123 116t96.5 151.5t52.5 185.5q-38 -49 -119 -76t-154 -27 q-201 0 -317.5 105t-116.5 307zM309 993q0 -43 11.5 -82t37 -75.5t73.5 -58t114 -21.5q115 0 193.5 72t78.5 194q0 123 -73.5 185.5t-176.5 62.5q-82 0 -142.5 -41.5t-88 -103t-27.5 -132.5z" />
<glyph unicode=":" horiz-adv-x="438" d="M115 0v207h209v-207h-209zM115 694v207h209v-207h-209z" />
<glyph unicode=";" horiz-adv-x="460" d="M115 -197l69 179l-67 18v207h221v-209l-174 -221zM117 694v207h229v-207h-229z" />
<glyph unicode="&#x3c;" horiz-adv-x="851" d="M61 582l441 422h231l-440 -422l440 -422h-231z" />
<glyph unicode="=" horiz-adv-x="1024" d="M133 322v167h758v-167h-758zM133 645v168h758v-168h-758z" />
<glyph unicode="&#x3e;" horiz-adv-x="854" d="M121 160l440 422l-440 422h231l441 -422l-441 -422h-231z" />
<glyph unicode="?" horiz-adv-x="901" d="M59 1397q41 63 130 101t196 38q82 0 153.5 -24t121 -63.5t85 -90t52 -103.5t16.5 -104q0 -70 -35 -145.5t-84.5 -141.5t-99 -131t-84.5 -138t-35 -140v-45h-139q-2 28 -3.5 52.5t-2 33.5t-0.5 12q0 59 21.5 118t53.5 105.5t69 98.5t69 97.5t53.5 103.5t21.5 116 q0 113 -70 172t-171 59q-89 0 -162 -43.5t-102 -93.5zM303 0v203h209v-203h-209z" />
<glyph unicode="@" horiz-adv-x="1472" d="M96 348q0 131 40 252.5t112.5 217t168.5 167t212 110t239 38.5q239 0 374.5 -140.5t135.5 -380.5q0 -150 -51 -286q-39 -61 -116 -97t-136 -36q-76 0 -76 108q0 50 15.5 114.5t46.5 171t51 189.5q-105 109 -250 109q-124 0 -245.5 -84t-198 -218.5t-76.5 -273.5 q0 -98 46.5 -162.5t148.5 -64.5q88 0 194 65t166 172q0 -5 -3 -31t-3 -32q0 -66 27.5 -118t85.5 -52q60 0 140.5 39.5t131.5 91.5q-98 -178 -279.5 -286.5t-392.5 -108.5q-235 0 -371.5 139.5t-136.5 386.5zM506 348q0 82 37 161t92 132.5t117 86t112 32.5q95 0 111 -45 q-19 -107 -83.5 -224t-147 -195.5t-148.5 -78.5q-45 0 -67.5 37t-22.5 94z" />
<glyph unicode="A" horiz-adv-x="1269" d="M12 0l512 1434h219l514 -1434h-229l-131 373h-524l-133 -373h-228zM444 575h381l-190 537z" />
<glyph unicode="B" horiz-adv-x="1243" d="M162 0v1434h346q108 0 185.5 -8t149 -30.5t114.5 -61.5t68.5 -104t25.5 -155q0 -103 -23.5 -172t-95.5 -139q132 -50 188 -131.5t56 -208.5q0 -424 -502 -424h-512zM379 193h221q69 0 118.5 5t96 19t74.5 38.5t44.5 65t16.5 97.5q0 70 -21.5 119t-62 74t-87 35.5 t-107.5 10.5h-293v-464zM379 844h248q34 0 60.5 3.5t56 16t48.5 34t31.5 60.5t12.5 93q0 62 -18.5 101.5t-56.5 58.5t-79 25.5t-102 6.5h-201v-399z" />
<glyph unicode="C" horiz-adv-x="1257" d="M76 717q0 222 92 392.5t253.5 261.5t366.5 91q108 0 216.5 -23t185.5 -61l-23 -204q-77 29 -119.5 43t-116 28.5t-143.5 14.5q-151 0 -260 -72.5t-162 -193.5t-53 -277t53.5 -277t163.5 -193.5t263 -72.5q68 0 139 13.5t116.5 28.5t118.5 42l23 -205 q-81 -37 -187.5 -59.5t-211.5 -22.5q-154 0 -286 53.5t-227 149.5t-148.5 236t-53.5 307z" />
<glyph unicode="D" horiz-adv-x="1484" d="M162 0v1434h532q155 0 285.5 -49t225 -139.5t147.5 -226t53 -302.5t-53 -302.5t-147.5 -226t-225 -139.5t-285.5 -49h-532zM379 203h315q228 0 350.5 138.5t122.5 375.5t-122.5 375.5t-350.5 138.5h-315v-1028z" />
<glyph unicode="E" horiz-adv-x="1144" d="M162 0v1434h889v-203h-670v-381h528v-203h-528v-444h690v-203h-909z" />
<glyph unicode="F" horiz-adv-x="1071" d="M162 0v1434h876v-203h-659v-381h510v-203h-510v-647h-217z" />
<glyph unicode="G" horiz-adv-x="1372" d="M78 719q0 222 92 391.5t254.5 260.5t370.5 91q107 0 227.5 -23.5t200.5 -58.5l-23 -198q-209 78 -399 78q-121 0 -215.5 -41.5t-152.5 -115.5t-88 -171t-30 -213q0 -120 32 -218.5t94 -172t160.5 -114t225.5 -40.5q128 0 226 33v321h-203v191h420v-639 q-84 -45 -226.5 -77t-263.5 -32q-149 0 -278 53.5t-223 149.5t-147.5 237t-53.5 308z" />
<glyph unicode="H" horiz-adv-x="1523" d="M162 0v1434h217v-580h766v580h217v-1434h-217v645h-766v-645h-217z" />
<glyph unicode="I" horiz-adv-x="542" d="M162 0v1434h219v-1434h-219z" />
<glyph unicode="J" horiz-adv-x="540" d="M-25 -209h23q95 0 129.5 47.5t34.5 159.5v1436h217v-1493q0 -293 -336 -293h-47z" />
<glyph unicode="K" horiz-adv-x="1212" d="M162 0v1434h217v-1434h-217zM449 760l520 674h235l-520 -674l520 -760h-235z" />
<glyph unicode="L" horiz-adv-x="1026" d="M162 0v1434h217v-1231h635v-203h-852z" />
<glyph unicode="M" horiz-adv-x="1675" d="M94 0l195 1434h182l367 -691l364 691h184l195 -1434h-229l-131 1040l-381 -714l-387 714l-131 -1040h-228z" />
<glyph unicode="N" horiz-adv-x="1443" d="M162 0v1434h227l674 -1022v1022h219v-1434h-182l-721 1081v-1081h-217z" />
<glyph unicode="O" horiz-adv-x="1568" d="M78 717q0 223 91 393t251 261t364 91q153 0 283.5 -53t224 -149t146.5 -236t53 -307t-53 -307t-146.5 -236t-224 -149.5t-283.5 -53.5t-283.5 53.5t-223.5 149.5t-146 236t-53 307zM315 717q0 -156 51.5 -277t159 -193.5t258.5 -72.5t258.5 72.5t159 193.5t51.5 277 t-51.5 277t-159 193.5t-258.5 72.5t-258.5 -72.5t-159 -193.5t-51.5 -277z" />
<glyph unicode="P" horiz-adv-x="1189" d="M162 0v1434h442q72 0 128.5 -4.5t114 -17t100.5 -33.5t81.5 -55t62.5 -80.5t38 -111.5t14 -147q0 -111 -30 -199t-76.5 -142t-109.5 -89.5t-123.5 -49t-123.5 -13.5h-293v-492h-225zM387 690h256q146 0 210.5 70t64.5 219q0 145 -68.5 204.5t-245.5 59.5h-217v-553z" />
<glyph unicode="Q" horiz-adv-x="1568" d="M78 717q0 223 91 393t251 261t364 91q153 0 283.5 -53t224 -149t146.5 -236t53 -307q0 -262 -143 -475l125 -103l-119 -141l-137 113q-192 -140 -433 -140q-153 0 -283.5 53.5t-223.5 149.5t-146 236t-53 307zM315 717q0 -157 51 -277.5t158.5 -193t259.5 -72.5 q171 0 273 70l-197 162l119 145l203 -176q50 82 67 163.5t17 178.5q0 156 -54 277t-165 193.5t-263 72.5t-259.5 -72.5t-158.5 -193t-51 -277.5z" />
<glyph unicode="R" horiz-adv-x="1249" d="M162 0v1434h485q114 0 201 -21t154.5 -68.5t103 -130t35.5 -198.5q0 -140 -67.5 -243t-188.5 -165l332 -608h-232l-311 551h-289v-551h-223zM385 758h270q119 0 188.5 62.5t69.5 189.5q0 245 -288 245h-240v-497z" />
<glyph unicode="S" horiz-adv-x="1196" d="M82 1042q0 58 15.5 114t54 112.5t95.5 98.5t147.5 68.5t203.5 26.5q133 0 260.5 -31.5t192.5 -70.5l-23 -227q-123 63 -219.5 96t-194.5 33q-54 0 -104.5 -10.5t-96 -32.5t-73 -60t-27.5 -88q0 -37 16.5 -68t41 -52.5t67.5 -42.5t81 -34.5t97 -31.5q192 -59 271 -98 q186 -91 231 -248q15 -55 15 -119q0 -37 -5 -71.5t-20 -76.5t-39.5 -77.5t-67.5 -69.5t-100 -58t-140.5 -38.5t-185.5 -14.5q-150 0 -275 28t-196 69l27 251q77 -61 193.5 -103t255.5 -42t226 48t87 151q0 45 -20 83t-48 63t-81.5 51t-94.5 41t-114 38q-185 61 -259 100 q-160 85 -188 225q-6 32 -6 68z" />
<glyph unicode="T" horiz-adv-x="1122" d="M39 1231v203h1044v-203h-413v-1231h-219v1231h-412z" />
<glyph unicode="U" horiz-adv-x="1478" d="M145 610v824h217v-732q0 -90 8.5 -161.5t33 -142.5t65.5 -118.5t109.5 -76.5t160.5 -29t160.5 29t109.5 76.5t65.5 118.5t33 142.5t8.5 161.5v732h217v-824q0 -301 -149.5 -470t-444.5 -169t-444.5 169t-149.5 470z" />
<glyph unicode="V" horiz-adv-x="1329" d="M6 1434h227l433 -1168l428 1168h227l-535 -1434h-243z" />
<glyph unicode="W" horiz-adv-x="1982" d="M27 1434h227l307 -1145l346 1126h178l353 -1116l301 1135h227l-420 -1434h-221l-332 1100l-338 -1100h-227z" />
<glyph unicode="X" horiz-adv-x="1247" d="M12 0l490 715l-482 719h252l357 -541l364 541h238l-498 -693l510 -741h-239l-392 565l-360 -565h-240z" />
<glyph unicode="Y" horiz-adv-x="1181" d="M-10 1434h231l369 -586l368 586h232l-488 -781v-653h-223v653z" />
<glyph unicode="Z" horiz-adv-x="1126" d="M18 0l732 1231h-639v203h999l-733 -1231h641v-203h-1000z" />
<glyph unicode="[" horiz-adv-x="675" d="M141 -276v1812h527v-168h-336v-1477h336v-167h-527z" />
<glyph unicode="\" horiz-adv-x="1089" d="M68 1434h219l766 -1608h-219z" />
<glyph unicode="]" horiz-adv-x="688" d="M20 -78h336v1413h-336v201h527v-1812h-527v198z" />
<glyph unicode="^" horiz-adv-x="1046" d="M100 868v246l422 440l422 -440v-246l-422 441z" />
<glyph unicode="_" horiz-adv-x="1155" d="M4 -74h1147v-182h-1147v182z" />
<glyph unicode="`" horiz-adv-x="620" d="M119 1341v170l383 -190v-109z" />
<glyph unicode="a" horiz-adv-x="997" d="M49 276q0 69 27 125.5t74.5 94.5t105.5 66t127 43.5t131 23t125 8.5q-1 120 -49.5 164.5t-157.5 44.5q-131 0 -270 -84l-25 168q154 100 352 100q188 0 273.5 -104.5t85.5 -354.5v-229q0 -115 19.5 -155t86.5 -40h25l-27 -167h-41q-76 0 -126 17.5t-75 45t-48 74.5 q-55 -64 -135.5 -100.5t-174.5 -36.5q-134 0 -218.5 81.5t-84.5 214.5zM264 287q0 -144 150 -144q61 0 123 31t104 84v238q-187 -8 -282 -57.5t-95 -151.5z" />
<glyph unicode="b" horiz-adv-x="1150" d="M123 0v1536h209v-614q100 108 286 108q108 0 198 -43t148.5 -115.5t90.5 -167.5t32 -200q0 -222 -132 -373t-339 -151q-77 0 -155.5 32t-132.5 90l-17 -102h-188zM319 504q0 -165 79 -254.5t200 -89.5q126 0 201 97t75 247q0 153 -74.5 249.5t-201.5 96.5 q-121 0 -200 -91.5t-79 -254.5z" />
<glyph unicode="c" horiz-adv-x="925" d="M63 506q0 110 31.5 204.5t92.5 166.5t157 112.5t217 40.5q196 0 309 -65l-26 -185q-128 70 -262 70q-150 0 -228 -90.5t-78 -253.5q0 -161 78.5 -254.5t227.5 -93.5q139 0 262 69l24 -172q-117 -75 -305 -75q-121 0 -217.5 42t-157.5 115t-93 167t-32 202z" />
<glyph unicode="d" horiz-adv-x="1148" d="M63 504q0 141 55 259.5t164 192.5t253 74q181 0 284 -106v612h207v-1536h-188l-17 102q-54 -58 -132 -90t-154 -32q-207 0 -339.5 151t-132.5 373zM276 504q0 -150 74 -247t199 -97q123 0 205 88t82 252q0 162 -83 256t-204 94q-125 0 -199 -96.5t-74 -249.5z" />
<glyph unicode="e" d="M63 510q0 143 57 260t170.5 188.5t264.5 71.5q194 0 316 -116.5t122 -315.5q0 -62 -10 -113h-704q10 -90 41.5 -155t80.5 -101t105.5 -52.5t124.5 -16.5q160 0 297 67l20 -170q-162 -77 -338 -77q-131 0 -236 42t-172.5 115t-103 168.5t-35.5 204.5zM291 629h489 q0 100 -56 160.5t-169 60.5q-210 0 -264 -221z" />
<glyph unicode="f" horiz-adv-x="686" d="M25 844l22 166h141v252q0 120 62 197t176 77q127 0 217 -23l-27 -174q-64 17 -118 17q-65 0 -83 -40.5t-18 -176.5v-129h254v-166h-254v-844h-209v844h-163z" />
<glyph unicode="g" horiz-adv-x="1021" d="M53 -209q0 64 40 126t134 101q-98 50 -98 134q0 39 27 78t86 67q-168 122 -168 330q0 172 109.5 287.5t301.5 115.5q139 0 248 -69q101 53 236 53h32l-20 -135h-61q-31 0 -99 -11q82 -104 82 -235q0 -79 -27 -151t-77 -128t-128.5 -89.5t-174.5 -33.5q-64 0 -134 17 q-38 -20 -38 -51q0 -36 58.5 -54t233.5 -45q41 -7 72 -13t76 -18t78.5 -26t70 -37t59.5 -50t38.5 -64.5t15.5 -82.5q0 -137 -132 -228t-368 -91q-123 0 -218 27.5t-148.5 72.5t-80 96.5t-26.5 106.5zM242 -199q0 -70 76 -113.5t210 -43.5q136 0 216.5 44.5t80.5 108.5 q0 57 -68 91.5t-200 56.5q-12 0 -75 8.5t-87 13.5q-67 -23 -110 -67.5t-43 -98.5zM268 631q0 -112 59.5 -177t161.5 -65q104 0 162 68.5t58 177.5t-60 171t-162 62q-105 0 -162 -65t-57 -172z" />
<glyph unicode="h" horiz-adv-x="1116" d="M123 0v1536h209v-614q102 108 264 108q110 0 190 -35t127.5 -101.5t70 -153.5t22.5 -199v-541h-209v541q0 167 -51.5 238t-176.5 71q-159 0 -237 -117v-733h-209z" />
<glyph unicode="i" horiz-adv-x="454" d="M123 0v1010h209v-1010h-209zM123 1212v222h209v-222h-209z" />
<glyph unicode="j" horiz-adv-x="454" d="M-16 -332q62 4 89 18t38.5 51.5t11.5 121.5v1151h209v-1231q0 -125 -73.5 -191.5t-182.5 -76.5l-72 -7zM123 1212v222h209v-222h-209z" />
<glyph unicode="k" horiz-adv-x="946" d="M123 0v1536h209v-967l354 441h246l-402 -471l408 -539h-246l-360 492v-492h-209z" />
<glyph unicode="l" horiz-adv-x="501" d="M121 229v1307h207v-1200q0 -66 5 -101t22.5 -56t44 -26.5t77.5 -5.5l-26 -167h-70q-133 0 -196.5 71t-63.5 178z" />
<glyph unicode="m" horiz-adv-x="1787" d="M123 0v1010h166l18 -97q71 62 139 89.5t148 27.5q223 0 332 -186q44 84 134.5 135t221.5 51q195 0 294 -115.5t99 -336.5v-578h-207v575q0 143 -52 209t-169 66q-243 0 -243 -250v-600h-209v553q0 169 -55.5 233t-168.5 64q-167 0 -239 -115v-735h-209z" />
<glyph unicode="n" horiz-adv-x="1140" d="M123 0v1010h176l14 -90q129 110 295 110q420 0 420 -477v-553h-209v553q0 156 -56 226.5t-185 70.5q-81 0 -145.5 -29.5t-100.5 -87.5v-733h-209z" />
<glyph unicode="o" horiz-adv-x="1136" d="M63 504q0 147 58.5 265.5t174.5 189.5t271 71t271.5 -71t175.5 -189.5t59 -265.5q0 -146 -59 -264t-175.5 -189t-271.5 -71t-271 71t-174.5 189t-58.5 264zM276 504q0 -161 76.5 -252.5t214.5 -91.5q140 0 216.5 91.5t76.5 252.5q0 163 -76.5 254.5t-216.5 91.5 q-139 0 -215 -92t-76 -254z" />
<glyph unicode="p" horiz-adv-x="1148" d="M123 -496v1506h170l20 -113q64 68 134.5 100.5t173.5 32.5q143 0 250.5 -74t160.5 -192t53 -260q0 -110 -30 -204.5t-87 -166t-147 -112.5t-203 -41q-75 0 -155 31.5t-133 88.5v-596h-207zM319 504q0 -165 79.5 -254.5t201.5 -89.5q126 0 199 97t73 247q0 154 -72.5 250 t-199.5 96q-121 0 -201 -91.5t-80 -254.5z" />
<glyph unicode="q" horiz-adv-x="1148" d="M63 504q0 105 31.5 200t89 167.5t147 115.5t197.5 43q103 0 173.5 -32.5t134.5 -100.5l20 113h170v-1506h-207v596q-53 -57 -134 -88.5t-157 -31.5q-112 0 -201.5 41t-146.5 112.5t-87 166t-30 204.5zM276 504q0 -150 73.5 -247t199.5 -97q122 0 201 89.5t79 254.5 q0 163 -79.5 254.5t-200.5 91.5q-127 0 -200 -96t-73 -250z" />
<glyph unicode="r" horiz-adv-x="671" d="M123 0v1010h182l17 -146q78 87 154 131.5t163 44.5h33l-43 -215h-74q-62 0 -126 -36.5t-89 -83.5v-705h-217z" />
<glyph unicode="s" horiz-adv-x="858" d="M68 63l22 191q45 -37 131.5 -69.5t181.5 -32.5q92 0 138.5 32.5t46.5 87.5q0 35 -17 62t-49 46t-61 29.5t-70 22.5q-39 11 -61.5 18t-59.5 21t-59 28t-49 36t-42 47.5t-25.5 61t-10.5 77.5q0 59 20 112t62.5 98.5t118 72t176.5 26.5q166 0 289 -69l-23 -185 q-112 96 -258 96q-84 0 -135 -32t-51 -97q0 -27 10.5 -47.5t25.5 -34.5t47 -27.5t59 -22t77 -23.5q9 -3 14 -4q43 -13 74 -24.5t74 -36.5t70 -55t47 -79.5t20 -109.5q0 -43 -9 -81t-35.5 -79.5t-68 -71t-112.5 -48.5t-164 -19q-117 0 -207 25.5t-137 57.5z" />
<glyph unicode="t" horiz-adv-x="698" d="M35 844l18 166h146v241l209 21v-262h249v-166h-249v-506q0 -50 1 -76.5t9 -51.5t18 -35t34.5 -17.5t51.5 -9t76 -1.5h55l-16 -167h-172q-133 0 -199.5 72.5t-66.5 176.5v615h-164z" />
<glyph unicode="u" horiz-adv-x="1093" d="M113 438v572h209v-539q0 -157 52.5 -234t170.5 -77q144 0 217 104v746h209v-1010h-191l-14 94q-94 -114 -260 -114q-196 0 -294.5 116.5t-98.5 341.5z" />
<glyph unicode="v" horiz-adv-x="1005" d="M12 1010h221l271 -768l268 768h221l-385 -1010h-209z" />
<glyph unicode="w" horiz-adv-x="1480" d="M20 1010h228l186 -770l207 743h197l206 -743l189 770h227l-301 -1010h-209l-211 717l-211 -717h-209z" />
<glyph unicode="x" horiz-adv-x="980" d="M20 0l345 504l-338 506h239l230 -359l211 359h245l-329 -496l338 -514h-240l-232 358l-229 -358h-240z" />
<glyph unicode="y" d="M8 1010h232l297 -715l276 715h231l-624 -1506h-221l229 549z" />
<glyph unicode="z" horiz-adv-x="964" d="M45 0l506 840h-485v170h852l-506 -838h491v-172h-858z" />
<glyph unicode="{" horiz-adv-x="626" d="M35 629q84 51 118.5 118.5t34.5 182.5q0 49 -7 150t-7 139q0 155 99.5 234t340.5 83v-170q-40 -1 -71.5 -3t-58 -8t-46 -12t-35 -19.5t-25.5 -25t-17.5 -34t-11.5 -41.5t-6 -52t-2.5 -60.5t-0.5 -72.5q0 -27 3 -86t3 -88q0 -76 -28.5 -129.5t-118.5 -105.5 q91 -51 119 -99t28 -118q0 -28 -3 -91.5t-3 -99.5q0 -57 1 -89.5t5 -70.5t11 -57.5t21 -42t33 -32.5t48.5 -20t66.5 -13.5t88 -4.5v-167q-237 4 -338.5 81t-101.5 234q0 38 7 139.5t7 151.5q0 110 -33.5 179t-119.5 120z" />
<glyph unicode="|" horiz-adv-x="473" d="M141 -428v1964h191v-1964h-191z" />
<glyph unicode="}" horiz-adv-x="626" d="M12 -109q81 2 130 13.5t80 29t44.5 62.5t17 90t3.5 135q0 36 -3 99.5t-3 91.5q0 70 28 118t119 99q-90 52 -118.5 105.5t-28.5 129.5q0 29 3 88t3 86q0 56 -1 89t-5 71t-11.5 57.5t-21.5 42t-33 32t-48.5 19.5t-66.5 13t-88 4v170q124 -2 210.5 -24t136.5 -64t72 -97.5 t22 -131.5q0 -38 -7.5 -139t-7.5 -150q0 -115 35 -182.5t119 -118.5q-86 -51 -120 -120t-34 -179q0 -50 7.5 -151.5t7.5 -139.5q0 -157 -102 -234t-339 -81v167z" />
<glyph unicode="~" horiz-adv-x="942" d="M106 389q19 95 86.5 144t141.5 49q52 0 144 -47.5t126 -47.5q88 0 133 103l101 -27q-21 -88 -82 -143t-146 -55q-46 0 -139.5 49t-126.5 49q-51 0 -83.5 -27.5t-45.5 -70.5z" />
<glyph unicode="&#xa1;" horiz-adv-x="491" d="M119 -512l55 1126h143l56 -1126h-254zM145 821v203h201v-203h-201z" />
<glyph unicode="&#xa2;" horiz-adv-x="974" d="M70 711q0 135 48 247t151 189.5t249 95.5l-39 289h160l-37 -289q173 -7 270 -67l-18 -181q-129 74 -260 74q-137 0 -215 -100.5t-78 -257.5q0 -155 78 -255t215 -100q134 0 260 72l18 -180q-97 -58 -266 -68l33 -243h-160l35 243q-215 30 -329.5 177t-114.5 354z" />
<glyph unicode="&#xa3;" horiz-adv-x="1044" d="M70 0q105 138 156 293t73 364h-190l28 140h170v241q0 68 6 120.5t27 109t56 93.5t97.5 61t147.5 24q234 0 295 -191l-74 -94q-16 38 -27.5 58.5t-31.5 44t-49 33.5t-70 10q-47 0 -81 -16t-54 -41.5t-31 -68t-14.5 -85.5t-3.5 -103v-196h393l-31 -140h-370 q-11 -149 -34.5 -249t-84.5 -238h547v-170h-850z" />
<glyph unicode="&#xa4;" horiz-adv-x="1284" d="M123 121l153 205q-151 164 -151 387t154 387l-156 205l80 67l157 -207q138 72 281 72q145 0 281 -74l159 209l80 -67l-155 -207q151 -164 151 -385q0 -220 -153 -389l157 -203l-82 -68l-157 207q-133 -72 -281 -72t-281 72l-157 -207zM334 713q0 -162 81 -265.5 t226 -103.5t226 103.5t81 265.5t-81 265t-226 103t-226 -103t-81 -265z" />
<glyph unicode="&#xa5;" horiz-adv-x="1398" d="M57 1434h219l424 -607l424 607h219l-520 -772h330l-49 -115h-295v-133h344l-49 -121h-295v-293h-219v293h-354l45 121h309v133h-354l45 115h297z" />
<glyph unicode="&#xa6;" horiz-adv-x="466" d="M143 352h181v-782h-181v782zM143 614v922h181v-922h-181z" />
<glyph unicode="&#xa7;" horiz-adv-x="937" d="M78 678q0 234 207 303q-68 50 -92.5 101.5t-24.5 117.5q0 51 10.5 98t36 91t63.5 76t97.5 51.5t134.5 19.5q88 0 170.5 -25t128.5 -57l-25 -160q-142 95 -264 95q-86 0 -140 -43.5t-54 -114.5q0 -44 23 -77.5t60.5 -54t85.5 -41.5t98 -38.5t98 -47t85.5 -65.5t60.5 -94.5 t23 -132.5q0 -40 -9 -78t-29.5 -79.5t-62 -78t-100.5 -61.5q69 -53 90 -103t21 -130q0 -46 -10.5 -89.5t-36 -86.5t-63.5 -74.5t-99 -51.5t-137 -20q-86 0 -171 23.5t-122 56.5l23 160q139 -91 268 -91q90 0 145.5 37.5t55.5 114.5q0 43 -18.5 75.5t-50 53.5t-72.5 38 t-86 32.5t-90.5 33t-86.5 44t-72.5 61.5t-50 89t-18.5 122zM236 709q0 -163 311 -240q60 12 103.5 66t43.5 120q0 36 -13.5 66.5t-39 53t-51.5 39t-62.5 29.5t-59 19.5t-54.5 14.5q-21 -1 -49 -10.5t-58 -27.5t-50.5 -52.5t-20.5 -77.5z" />
<glyph unicode="&#xa8;" horiz-adv-x="864" d="M178 1225v209h162v-209h-162zM524 1225v209h162v-209h-162z" />
<glyph unicode="&#xa9;" horiz-adv-x="1435" d="M82 748q0 150 48 276.5t132 212.5t202 134t255 48t254.5 -48t201.5 -134t131.5 -212t47.5 -277q0 -150 -47.5 -276t-131.5 -212.5t-201.5 -135t-254.5 -48.5t-255 48.5t-202 135t-132 212.5t-48 276zM207 748q0 -163 55 -288t172.5 -200.5t284.5 -75.5q125 0 223.5 43 t160.5 119.5t94 178.5t32 223t-32 222.5t-94 177.5t-160.5 118.5t-223.5 42.5q-126 0 -224.5 -42.5t-161 -118.5t-94.5 -177.5t-32 -222.5zM410 743q0 157 90.5 252t236.5 95q106 0 193 -41l-17 -142q-101 43 -176 43q-85 0 -129.5 -56t-44.5 -151q0 -93 44.5 -149.5 t129.5 -56.5q78 0 176 45l17 -140q-79 -43 -193 -43q-144 0 -235.5 94.5t-91.5 249.5z" />
<glyph unicode="&#xaa;" horiz-adv-x="727" d="M68 1067q0 47 26.5 85t64.5 59.5t87 36.5t87.5 21t72.5 7q-8 70 -101 70q-65 0 -174 -37l-10 137q112 43 231 43q104 0 167 -51t63 -152v-182q0 -47 9.5 -60.5t35.5 -13.5h24l-12 -141h-78q-37 0 -74.5 16t-54.5 39q-28 -27 -80.5 -41t-109.5 -14q-73 0 -123.5 47 t-50.5 131zM252 1073q0 -29 17.5 -43t58.5 -14q45 0 80 18v129q-24 -1 -58.5 -11t-66 -31.5t-31.5 -47.5z" />
<glyph unicode="&#xab;" horiz-adv-x="1185" d="M29 582l305 422h237l-303 -422l303 -422h-237zM561 582l305 422h240l-305 -422l305 -422h-240z" />
<glyph unicode="&#xac;" horiz-adv-x="1216" d="M131 684v147h942v-522h-139v375h-803z" />
<glyph unicode="&#xad;" horiz-adv-x="864" d="M115 471v193h635v-193h-635z" />
<glyph unicode="&#xae;" horiz-adv-x="1435" d="M82 748q0 150 48 276.5t132 212.5t202 134t255 48t254.5 -48t201.5 -134t131.5 -212t47.5 -277q0 -150 -47.5 -276t-131.5 -212.5t-201.5 -135t-254.5 -48.5t-255 48.5t-202 135t-132 212.5t-48 276zM205 748q0 -163 55.5 -288.5t173.5 -201.5t285 -76q125 0 223.5 43.5 t161 120.5t95 179t32.5 223t-32.5 223t-95 178t-161 119t-223.5 43q-126 0 -225 -43t-161.5 -119t-95 -178t-32.5 -223zM475 426v666h248q111 0 171 -47.5t60 -163.5q0 -53 -29 -100t-77 -79l147 -276h-149l-131 236h-94v-236h-146zM621 793h69q64 0 88.5 24.5t24.5 67.5 q0 45 -23.5 66.5t-85.5 21.5h-73v-180z" />
<glyph unicode="&#xb0;" horiz-adv-x="677" d="M68 1266q0 120 73 200t197 80q125 0 198.5 -80t73.5 -200t-73.5 -199.5t-198.5 -79.5q-124 0 -197 80t-73 199zM174 1266q0 -87 44.5 -147t119.5 -60q79 0 121.5 59t42.5 148q0 88 -42.5 148.5t-121.5 60.5q-76 0 -120 -60.5t-44 -148.5z" />
<glyph unicode="&#xb1;" horiz-adv-x="1011" d="M127 78v155h758v-155h-758zM127 657v156h303v277h152v-277h303v-156h-303v-282h-152v282h-303z" />
<glyph unicode="&#xb2;" horiz-adv-x="628" d="M47 655q143 194 220 316.5t93.5 165t16.5 75.5q0 47 -26.5 75t-76.5 28q-107 0 -190 -129l-21 147q24 43 88.5 78t155.5 35q62 0 108.5 -19t71.5 -51t36.5 -66.5t11.5 -70.5q0 -72 -47.5 -170t-153.5 -250h227v-164h-514z" />
<glyph unicode="&#xb3;" horiz-adv-x="632" d="M39 700l41 152q13 -19 67.5 -34t104.5 -15q151 0 151 84q0 61 -27 94t-104 33h-114l12 125h59q76 0 108 25.5t32 60.5q0 36 -26.5 60t-86.5 24q-104 0 -139 -31l-25 117q22 20 74.5 35.5t109.5 15.5q77 0 131.5 -20.5t81 -55t37.5 -67.5t11 -68q0 -53 -18.5 -92.5 t-47.5 -57.5q46 -37 71 -80t25 -108q0 -122 -90.5 -190t-216.5 -68q-68 0 -137.5 21.5t-83.5 39.5z" />
<glyph unicode="&#xb4;" horiz-adv-x="620" d="M119 1212v109l383 190v-170z" />
<glyph unicode="&#xb5;" horiz-adv-x="1232" d="M152 -496v1506h206v-535q0 -161 52 -238t182 -77q72 0 122.5 24.5t98.5 81.5v744h205v-660q0 -114 19 -158.5t75 -44.5h41l-31 -167h-65q-161 0 -219 135q-61 -66 -123.5 -100.5t-145.5 -34.5q-63 0 -109.5 12.5t-103.5 48.5v-537h-204z" />
<glyph unicode="&#xb6;" horiz-adv-x="1275" d="M68 965q0 71 22 137.5t69.5 127t115.5 106t166.5 72t215.5 26.5h531v-166h-150v-1268h-127v1268h-178v-1268h-104v487q-140 8 -250 52.5t-176.5 112t-100.5 147.5t-34 166z" />
<glyph unicode="&#xb7;" horiz-adv-x="483" d="M115 436v266h254v-266h-254z" />
<glyph unicode="&#xb8;" horiz-adv-x="620" d="M285 -395l141 272l162 14l-191 -272z" />
<glyph unicode="&#xb9;" horiz-adv-x="448" d="M51 1309q35 3 83.5 42.5t60.5 78.5h131v-775h-168v543q-5 -1 -22 -6t-36.5 -9.5t-38.5 -6.5z" />
<glyph unicode="&#xba;" horiz-adv-x="765" d="M66 1190q0 125 86 212t231 87t231 -87t86 -212q0 -126 -86 -213.5t-231 -87.5t-231 87.5t-86 213.5zM244 1190q0 -71 37.5 -118.5t101.5 -47.5t101.5 47.5t37.5 118.5q0 73 -37.5 119.5t-101.5 46.5t-101.5 -46.5t-37.5 -119.5z" />
<glyph unicode="&#xbb;" horiz-adv-x="1185" d="M82 160l307 422l-307 422h240l305 -422l-305 -422h-240zM614 160l306 422l-306 422h240l303 -422l-303 -422h-240z" />
<glyph unicode="&#xbc;" horiz-adv-x="1478" d="M80 1309q35 3 83 42.5t60 78.5h131v-775h-168v543q-5 -1 -21.5 -6t-36 -9.5t-38.5 -6.5zM123 -174l764 1608h229l-766 -1608h-227zM784 211l383 563h144v-436h100v-127h-100v-211h-168v211h-359zM1006 338h137v201z" />
<glyph unicode="&#xbd;" horiz-adv-x="1495" d="M76 1309q35 3 83 42.5t60 78.5h131v-775h-168v543q-5 -1 -21.5 -6t-36 -9.5t-38.5 -6.5zM119 -174l764 1608h229l-766 -1608h-227zM909 0q143 194 220 316.5t93.5 165t16.5 75.5q0 47 -26 74.5t-76 27.5q-108 0 -191 -129l-20 148q24 44 88 78.5t155 34.5q62 0 108.5 -19 t71.5 -51t36.5 -66.5t11.5 -70.5q0 -72 -47.5 -170t-153.5 -250h227v-164h-514z" />
<glyph unicode="&#xbe;" horiz-adv-x="1824" d="M66 700l40 152q13 -19 68 -34t105 -15q151 0 151 84q0 61 -27 94t-104 33h-115l13 125h59q75 0 107 25.5t32 60.5q0 37 -26 60.5t-86 23.5q-105 0 -140 -31l-24 117q22 20 74.5 35.5t109.5 15.5q62 0 110 -14.5t75.5 -36t45 -51t23.5 -56t6 -53.5q0 -53 -18 -92.5 t-47 -57.5q46 -37 71 -80t25 -108q0 -122 -90.5 -190t-216.5 -68q-68 0 -137.5 21.5t-83.5 39.5zM467 -174l764 1608h229l-766 -1608h-227zM1128 211l383 563h144v-436h100v-127h-100v-211h-168v211h-359zM1350 338h137v201z" />
<glyph unicode="&#xbf;" horiz-adv-x="905" d="M111 -127q0 70 35 145.5t84.5 141.5t99 131t84.5 138t35 140v45h139q2 -28 3.5 -52.5t2 -33.5t0.5 -12q0 -70 -30 -139t-72 -126t-84.5 -113.5t-72.5 -124.5t-30 -136q0 -113 70.5 -172t171.5 -59q88 0 160.5 43t103.5 94l53 -156q-41 -63 -129.5 -101t-195.5 -38 q-82 0 -153.5 24t-121 63.5t-85 90t-52 103.5t-16.5 104zM412 821v203h209v-203h-209z" />
<glyph unicode="&#xc0;" horiz-adv-x="1269" d="M12 0l512 1434h219l514 -1434h-229l-131 373h-524l-133 -373h-228zM444 575h381l-190 537zM444 1765v170l383 -190v-109z" />
<glyph unicode="&#xc1;" horiz-adv-x="1269" d="M12 0l512 1434h219l514 -1434h-229l-131 373h-524l-133 -373h-228zM444 575h381l-190 537zM444 1636v109l383 190v-170z" />
<glyph unicode="&#xc2;" horiz-adv-x="1269" d="M12 0l512 1434h219l514 -1434h-229l-131 373h-524l-133 -373h-228zM334 1647v100l301 207l301 -207v-100l-301 159zM444 575h381l-190 537z" />
<glyph unicode="&#xc3;" horiz-adv-x="1269" d="M12 0l512 1434h219l514 -1434h-229l-131 373h-524l-133 -373h-228zM270 1675q19 95 86.5 145t141.5 50q52 0 144 -48t126 -48q88 0 133 102l100 -27q-21 -87 -82 -142.5t-145 -55.5q-46 0 -139.5 49t-126.5 49q-51 0 -83.5 -27.5t-45.5 -70.5zM444 575h381l-190 537z" />
<glyph unicode="&#xc4;" horiz-adv-x="1269" d="M12 0l512 1434h219l514 -1434h-229l-131 373h-524l-133 -373h-228zM381 1649v209h162v-209h-162zM444 575h381l-190 537zM727 1649v209h162v-209h-162z" />
<glyph unicode="&#xc5;" horiz-adv-x="1269" d="M12 0l512 1434h219l514 -1434h-229l-131 373h-524l-133 -373h-228zM422 1786q0 76 57.5 130t155.5 54q100 0 156.5 -54t56.5 -130t-56.5 -129t-156.5 -53q-99 0 -156 53t-57 129zM444 575h381l-190 537zM524 1786q0 -49 32.5 -79t78.5 -30t78 30t32 79q0 47 -32 77.5 t-78 30.5t-78.5 -30.5t-32.5 -77.5z" />
<glyph unicode="&#xc6;" horiz-adv-x="1773" d="M-16 0l700 1434h995v-205h-626v-379h483v-203h-483v-444h647v-203h-893v360h-424l-180 -360h-219zM481 571h326v654z" />
<glyph unicode="&#xc7;" horiz-adv-x="1257" d="M76 717q0 222 92 392.5t253.5 261.5t366.5 91q108 0 216.5 -23t185.5 -61l-23 -204q-77 29 -119.5 43t-116 28.5t-143.5 14.5q-151 0 -260 -72.5t-162 -193.5t-53 -277t53.5 -277t163.5 -193.5t263 -72.5q68 0 139 13.5t116.5 28.5t118.5 42l23 -205 q-81 -37 -187.5 -59.5t-211.5 -22.5q-154 0 -286 53.5t-227 149.5t-148.5 236t-53.5 307zM475 -395l141 272l162 14l-190 -272z" />
<glyph unicode="&#xc8;" horiz-adv-x="1144" d="M162 0v1434h889v-203h-670v-381h528v-203h-528v-444h690v-203h-909zM373 1765v170l383 -190v-109z" />
<glyph unicode="&#xc9;" horiz-adv-x="1144" d="M162 0v1434h889v-203h-670v-381h528v-203h-528v-444h690v-203h-909zM373 1636v109l383 190v-170z" />
<glyph unicode="&#xca;" horiz-adv-x="1144" d="M162 0v1434h889v-203h-670v-381h528v-203h-528v-444h690v-203h-909zM262 1647v100l301 207l301 -207v-100l-301 159z" />
<glyph unicode="&#xcb;" horiz-adv-x="1144" d="M162 0v1434h889v-203h-670v-381h528v-203h-528v-444h690v-203h-909zM309 1649v209h162v-209h-162zM655 1649v209h162v-209h-162z" />
<glyph unicode="&#xcc;" horiz-adv-x="542" d="M82 1765v170l383 -190v-109zM162 0v1434h219v-1434h-219z" />
<glyph unicode="&#xcd;" horiz-adv-x="542" d="M82 1636v109l383 190v-170zM162 0v1434h219v-1434h-219z" />
<glyph unicode="&#xce;" horiz-adv-x="542" d="M-29 1647v100l301 207l301 -207v-100l-301 159zM162 0v1434h219v-1434h-219z" />
<glyph unicode="&#xcf;" horiz-adv-x="542" d="M18 1649v209h162v-209h-162zM162 0v1434h219v-1434h-219zM365 1649v209h161v-209h-161z" />
<glyph unicode="&#xd0;" horiz-adv-x="1495" d="M-14 631v153h194v650h529q207 0 365.5 -84t249.5 -247.5t91 -385.5t-91 -385.5t-249.5 -247.5t-365.5 -84h-529v631h-194zM391 203h318q229 0 350 137.5t121 376.5t-121 376.5t-350 137.5h-318v-447h264v-153h-264v-428z" />
<glyph unicode="&#xd1;" horiz-adv-x="1443" d="M162 0v1434h227l674 -1022v1022h219v-1434h-182l-721 1081v-1081h-217zM356 1675q19 95 86.5 145t141.5 50q52 0 144 -48t126 -48q88 0 133 102l100 -27q-21 -87 -82 -142.5t-145 -55.5q-46 0 -139.5 49t-126.5 49q-51 0 -83.5 -27.5t-45.5 -70.5z" />
<glyph unicode="&#xd2;" horiz-adv-x="1568" d="M78 717q0 223 91 393t251 261t364 91q153 0 283.5 -53t224 -149t146.5 -236t53 -307t-53 -307t-146.5 -236t-224 -149.5t-283.5 -53.5t-283.5 53.5t-223.5 149.5t-146 236t-53 307zM315 717q0 -156 51.5 -277t159 -193.5t258.5 -72.5t258.5 72.5t159 193.5t51.5 277 t-51.5 277t-159 193.5t-258.5 72.5t-258.5 -72.5t-159 -193.5t-51.5 -277zM592 1765v170l383 -190v-109z" />
<glyph unicode="&#xd3;" horiz-adv-x="1568" d="M78 717q0 223 91 393t251 261t364 91q153 0 283.5 -53t224 -149t146.5 -236t53 -307t-53 -307t-146.5 -236t-224 -149.5t-283.5 -53.5t-283.5 53.5t-223.5 149.5t-146 236t-53 307zM315 717q0 -156 51.5 -277t159 -193.5t258.5 -72.5t258.5 72.5t159 193.5t51.5 277 t-51.5 277t-159 193.5t-258.5 72.5t-258.5 -72.5t-159 -193.5t-51.5 -277zM592 1636v109l383 190v-170z" />
<glyph unicode="&#xd4;" horiz-adv-x="1568" d="M78 717q0 223 91 393t251 261t364 91q153 0 283.5 -53t224 -149t146.5 -236t53 -307t-53 -307t-146.5 -236t-224 -149.5t-283.5 -53.5t-283.5 53.5t-223.5 149.5t-146 236t-53 307zM315 717q0 -156 51.5 -277t159 -193.5t258.5 -72.5t258.5 72.5t159 193.5t51.5 277 t-51.5 277t-159 193.5t-258.5 72.5t-258.5 -72.5t-159 -193.5t-51.5 -277zM483 1647v100l301 207l301 -207v-100l-301 159z" />
<glyph unicode="&#xd5;" horiz-adv-x="1568" d="M78 717q0 223 91 393t251 261t364 91q153 0 283.5 -53t224 -149t146.5 -236t53 -307t-53 -307t-146.5 -236t-224 -149.5t-283.5 -53.5t-283.5 53.5t-223.5 149.5t-146 236t-53 307zM315 717q0 -156 51.5 -277t159 -193.5t258.5 -72.5t258.5 72.5t159 193.5t51.5 277 t-51.5 277t-159 193.5t-258.5 72.5t-258.5 -72.5t-159 -193.5t-51.5 -277zM418 1675q19 95 86.5 145t140.5 50q52 0 144 -48t126 -48q89 0 134 102l100 -27q-21 -87 -82 -142.5t-145 -55.5q-46 0 -140 49t-127 49q-51 0 -83.5 -27.5t-45.5 -70.5z" />
<glyph unicode="&#xd6;" horiz-adv-x="1568" d="M78 717q0 223 91 393t251 261t364 91q153 0 283.5 -53t224 -149t146.5 -236t53 -307t-53 -307t-146.5 -236t-224 -149.5t-283.5 -53.5t-283.5 53.5t-223.5 149.5t-146 236t-53 307zM315 717q0 -156 51.5 -277t159 -193.5t258.5 -72.5t258.5 72.5t159 193.5t51.5 277 t-51.5 277t-159 193.5t-258.5 72.5t-258.5 -72.5t-159 -193.5t-51.5 -277zM530 1649v209h162v-209h-162zM877 1649v209h161v-209h-161z" />
<glyph unicode="&#xd7;" horiz-adv-x="903" d="M121 328l239 239l-239 240l90 90l240 -240l239 240l92 -90l-241 -240l241 -239l-92 -90l-239 239l-240 -239z" />
<glyph unicode="&#xd8;" horiz-adv-x="1566" d="M78 717q0 223 91 393t251 261t364 91q176 0 340 -80l60 84h219l-131 -190q219 -222 219 -561q0 -166 -53 -305.5t-147 -235t-225 -148.5t-284 -53q-179 0 -348 84l-82 -118h-221l156 223q-209 224 -209 555zM322 715q0 -192 98 -363l584 854q-111 49 -222 49 q-149 0 -254.5 -71.5t-155.5 -191.5t-50 -277zM555 229q119 -51 229 -51q150 0 256 72t156.5 192t50.5 277q0 235 -104 371z" />
<glyph unicode="&#xd9;" horiz-adv-x="1478" d="M145 610v824h217v-732q0 -90 8.5 -161.5t33 -142.5t65.5 -118.5t109.5 -76.5t160.5 -29t160.5 29t109.5 76.5t65.5 118.5t33 142.5t8.5 161.5v732h217v-824q0 -301 -149.5 -470t-444.5 -169t-444.5 169t-149.5 470zM547 1765v170l383 -190v-109z" />
<glyph unicode="&#xda;" horiz-adv-x="1478" d="M145 610v824h217v-732q0 -90 8.5 -161.5t33 -142.5t65.5 -118.5t109.5 -76.5t160.5 -29t160.5 29t109.5 76.5t65.5 118.5t33 142.5t8.5 161.5v732h217v-824q0 -301 -149.5 -470t-444.5 -169t-444.5 169t-149.5 470zM547 1636v109l383 190v-170z" />
<glyph unicode="&#xdb;" horiz-adv-x="1478" d="M145 610v824h217v-732q0 -90 8.5 -161.5t33 -142.5t65.5 -118.5t109.5 -76.5t160.5 -29t160.5 29t109.5 76.5t65.5 118.5t33 142.5t8.5 161.5v732h217v-824q0 -301 -149.5 -470t-444.5 -169t-444.5 169t-149.5 470zM438 1647v100l301 207l301 -207v-100l-301 159z" />
<glyph unicode="&#xdc;" horiz-adv-x="1478" d="M145 610v824h217v-732q0 -90 8.5 -161.5t33 -142.5t65.5 -118.5t109.5 -76.5t160.5 -29t160.5 29t109.5 76.5t65.5 118.5t33 142.5t8.5 161.5v732h217v-824q0 -301 -149.5 -470t-444.5 -169t-444.5 169t-149.5 470zM485 1649v209h162v-209h-162zM831 1649v209h162v-209 h-162z" />
<glyph unicode="&#xdd;" horiz-adv-x="1181" d="M-10 1434h231l369 -586l368 586h232l-488 -781v-653h-223v653zM416 1636v109l383 190v-170z" />
<glyph unicode="&#xde;" horiz-adv-x="1163" d="M162 0v1434h225v-281h123q110 0 189.5 -5t153 -19t120.5 -39t83 -64t52 -94.5t16 -130.5q0 -214 -143 -300.5t-471 -86.5h-123v-414h-225zM387 555h195q169 0 246 58t77 173q0 120 -74.5 171t-248.5 51h-195v-453z" />
<glyph unicode="&#xdf;" horiz-adv-x="1140" d="M27 870l16 154h133v131q0 111 61.5 200.5t153 135t189.5 45.5q64 0 130.5 -22t127 -64t99 -115t38.5 -164q0 -81 -32.5 -156t-71 -119t-71 -82.5t-32.5 -55.5q0 -19 34.5 -49t83.5 -67.5t98 -84.5t83.5 -116.5t34.5 -147.5q0 -109 -65.5 -184t-165.5 -107.5t-224 -32.5 q-32 0 -110 8v146q73 1 125.5 5t100 15.5t76.5 30.5t45.5 50.5t16.5 74.5q0 54 -24 104t-60.5 86.5t-78.5 72.5t-78.5 64t-60.5 59t-24 58q0 26 22.5 57.5t55 66t65 75t55 97t22.5 118.5q0 59 -19.5 103t-52.5 67.5t-69.5 35t-75.5 11.5q-94 0 -147.5 -59t-53.5 -150v-1444 h-201v1149h-149z" />
<glyph unicode="&#xe0;" horiz-adv-x="997" d="M49 276q0 69 27 125.5t74.5 94.5t105.5 66t127 43.5t131 23t125 8.5q-1 120 -49.5 164.5t-157.5 44.5q-131 0 -270 -84l-25 168q154 100 352 100q188 0 273.5 -104.5t85.5 -354.5v-229q0 -115 19.5 -155t86.5 -40h25l-27 -167h-41q-76 0 -126 17.5t-75 45t-48 74.5 q-55 -64 -135.5 -100.5t-174.5 -36.5q-134 0 -218.5 81.5t-84.5 214.5zM264 287q0 -144 150 -144q61 0 123 31t104 84v238q-187 -8 -282 -57.5t-95 -151.5zM307 1341v170l383 -190v-109z" />
<glyph unicode="&#xe1;" horiz-adv-x="997" d="M49 276q0 69 27 125.5t74.5 94.5t105.5 66t127 43.5t131 23t125 8.5q-1 120 -49.5 164.5t-157.5 44.5q-131 0 -270 -84l-25 168q154 100 352 100q188 0 273.5 -104.5t85.5 -354.5v-229q0 -115 19.5 -155t86.5 -40h25l-27 -167h-41q-76 0 -126 17.5t-75 45t-48 74.5 q-55 -64 -135.5 -100.5t-174.5 -36.5q-134 0 -218.5 81.5t-84.5 214.5zM264 287q0 -144 150 -144q61 0 123 31t104 84v238q-187 -8 -282 -57.5t-95 -151.5zM307 1212v109l383 190v-170z" />
<glyph unicode="&#xe2;" horiz-adv-x="997" d="M49 276q0 69 27 125.5t74.5 94.5t105.5 66t127 43.5t131 23t125 8.5q-1 120 -49.5 164.5t-157.5 44.5q-131 0 -270 -84l-25 168q154 100 352 100q188 0 273.5 -104.5t85.5 -354.5v-229q0 -115 19.5 -155t86.5 -40h25l-27 -167h-41q-76 0 -126 17.5t-75 45t-48 74.5 q-55 -64 -135.5 -100.5t-174.5 -36.5q-134 0 -218.5 81.5t-84.5 214.5zM199 1223v100l301 207l301 -207v-100l-301 159zM264 287q0 -144 150 -144q61 0 123 31t104 84v238q-187 -8 -282 -57.5t-95 -151.5z" />
<glyph unicode="&#xe3;" horiz-adv-x="997" d="M49 276q0 69 27 125.5t74.5 94.5t105.5 66t127 43.5t131 23t125 8.5q-1 120 -49.5 164.5t-157.5 44.5q-131 0 -270 -84l-25 168q154 100 352 100q188 0 273.5 -104.5t85.5 -354.5v-229q0 -115 19.5 -155t86.5 -40h25l-27 -167h-41q-76 0 -126 17.5t-75 45t-48 74.5 q-55 -64 -135.5 -100.5t-174.5 -36.5q-134 0 -218.5 81.5t-84.5 214.5zM127 1251q19 95 86.5 145t140.5 50q52 0 144.5 -48t126.5 -48q88 0 133 102l100 -27q-21 -87 -82 -142.5t-145 -55.5q-46 0 -139.5 49t-126.5 49q-51 0 -83.5 -27.5t-45.5 -70.5zM264 287 q0 -144 150 -144q61 0 123 31t104 84v238q-187 -8 -282 -57.5t-95 -151.5z" />
<glyph unicode="&#xe4;" horiz-adv-x="997" d="M49 276q0 69 27 125.5t74.5 94.5t105.5 66t127 43.5t131 23t125 8.5q-1 120 -49.5 164.5t-157.5 44.5q-131 0 -270 -84l-25 168q154 100 352 100q188 0 273.5 -104.5t85.5 -354.5v-229q0 -115 19.5 -155t86.5 -40h25l-27 -167h-41q-76 0 -126 17.5t-75 45t-48 74.5 q-55 -64 -135.5 -100.5t-174.5 -36.5q-134 0 -218.5 81.5t-84.5 214.5zM246 1225v209h162v-209h-162zM264 287q0 -144 150 -144q61 0 123 31t104 84v238q-187 -8 -282 -57.5t-95 -151.5zM592 1225v209h162v-209h-162z" />
<glyph unicode="&#xe5;" horiz-adv-x="997" d="M49 276q0 69 27 125.5t74.5 94.5t105.5 66t127 43.5t131 23t125 8.5q-1 120 -49.5 164.5t-157.5 44.5q-131 0 -270 -84l-25 168q154 100 352 100q188 0 273.5 -104.5t85.5 -354.5v-229q0 -115 19.5 -155t86.5 -40h25l-27 -167h-41q-76 0 -126 17.5t-75 45t-48 74.5 q-55 -64 -135.5 -100.5t-174.5 -36.5q-134 0 -218.5 81.5t-84.5 214.5zM264 287q0 -144 150 -144q61 0 123 31t104 84v238q-187 -8 -282 -57.5t-95 -151.5zM287 1362q0 76 57.5 130t155.5 54q100 0 156.5 -54t56.5 -130t-56.5 -129t-156.5 -53q-99 0 -156 53t-57 129z M389 1362q0 -49 32.5 -79t78.5 -30t78 30t32 79q0 47 -32 77.5t-78 30.5t-78.5 -30.5t-32.5 -77.5z" />
<glyph unicode="&#xe6;" horiz-adv-x="1634" d="M45 248q0 90 41.5 159t103 109t147 67t158 37t152.5 13q-12 115 -62 164t-159 49q-119 0 -260 -66l-19 166q179 84 336 84q48 0 93.5 -10t93 -33t83 -70t50.5 -112q37 109 141 167t234 58q178 0 286.5 -112.5t108.5 -307.5q0 -60 -10 -125h-676q7 -165 96 -251.5 t227 -86.5q117 0 287 80l29 -168q-173 -79 -336 -79q-306 0 -412 217q-59 -108 -167.5 -167t-248.5 -59q-155 0 -236 74t-81 203zM260 266q0 -63 41 -94t107 -31q46 0 90.5 15.5t83 46t62.5 84t24 121.5q0 51 -4 84q-69 -1 -136.5 -13.5t-129.5 -37.5t-100 -70.5t-38 -104.5 zM899 629h479q0 105 -52.5 163t-156.5 58q-103 0 -173 -56t-97 -165z" />
<glyph unicode="&#xe7;" horiz-adv-x="925" d="M63 506q0 110 31.5 204.5t92.5 166.5t157 112.5t217 40.5q196 0 309 -65l-26 -185q-128 70 -262 70q-150 0 -228 -90.5t-78 -253.5q0 -161 78.5 -254.5t227.5 -93.5q139 0 262 69l24 -172q-117 -75 -305 -75q-121 0 -217.5 42t-157.5 115t-93 167t-32 202zM375 -395 l141 272l162 14l-191 -272z" />
<glyph unicode="&#xe8;" d="M63 510q0 143 57 260t170.5 188.5t264.5 71.5q194 0 316 -116.5t122 -315.5q0 -62 -10 -113h-704q10 -90 41.5 -155t80.5 -101t105.5 -52.5t124.5 -16.5q160 0 297 67l20 -170q-162 -77 -338 -77q-131 0 -236 42t-172.5 115t-103 168.5t-35.5 204.5zM291 629h489 q0 100 -56 160.5t-169 60.5q-210 0 -264 -221zM336 1341v170l383 -190v-109z" />
<glyph unicode="&#xe9;" d="M63 510q0 143 57 260t170.5 188.5t264.5 71.5q194 0 316 -116.5t122 -315.5q0 -62 -10 -113h-704q10 -90 41.5 -155t80.5 -101t105.5 -52.5t124.5 -16.5q160 0 297 67l20 -170q-162 -77 -338 -77q-131 0 -236 42t-172.5 115t-103 168.5t-35.5 204.5zM291 629h489 q0 100 -56 160.5t-169 60.5q-210 0 -264 -221zM336 1212v109l383 190v-170z" />
<glyph unicode="&#xea;" d="M63 510q0 143 57 260t170.5 188.5t264.5 71.5q194 0 316 -116.5t122 -315.5q0 -62 -10 -113h-704q10 -90 41.5 -155t80.5 -101t105.5 -52.5t124.5 -16.5q160 0 297 67l20 -170q-162 -77 -338 -77q-131 0 -236 42t-172.5 115t-103 168.5t-35.5 204.5zM225 1223v100 l301 207l301 -207v-100l-301 159zM291 629h489q0 100 -56 160.5t-169 60.5q-210 0 -264 -221z" />
<glyph unicode="&#xeb;" d="M63 510q0 143 57 260t170.5 188.5t264.5 71.5q194 0 316 -116.5t122 -315.5q0 -62 -10 -113h-704q10 -90 41.5 -155t80.5 -101t105.5 -52.5t124.5 -16.5q160 0 297 67l20 -170q-162 -77 -338 -77q-131 0 -236 42t-172.5 115t-103 168.5t-35.5 204.5zM272 1225v209h162 v-209h-162zM291 629h489q0 100 -56 160.5t-169 60.5q-210 0 -264 -221zM618 1225v209h162v-209h-162z" />
<glyph unicode="&#xec;" horiz-adv-x="454" d="M37 1341v170l383 -190v-109zM123 0v1010h209v-1010h-209z" />
<glyph unicode="&#xed;" horiz-adv-x="454" d="M37 1212v109l383 190v-170zM123 0v1010h209v-1010h-209z" />
<glyph unicode="&#xee;" horiz-adv-x="454" d="M-74 1223v100l301 207l301 -207v-100l-301 159zM123 0v1010h209v-1010h-209z" />
<glyph unicode="&#xef;" horiz-adv-x="454" d="M-27 1225v209h162v-209h-162zM123 0v1010h209v-1010h-209zM319 1225v209h162v-209h-162z" />
<glyph unicode="&#xf0;" horiz-adv-x="1062" d="M45 414q0 65 16.5 129.5t51.5 124t84.5 105t122.5 72.5t159 27q158 0 262 -100q-10 87 -57 200.5t-104 157.5q-146 -104 -287 -122l-68 125q127 14 256 102q-122 106 -245 106l71 95q148 0 303 -111q73 65 119 129l109 -27q-63 -93 -142 -178q128 -125 205.5 -319.5 t77.5 -403.5q0 -126 -30.5 -225t-78 -159t-112.5 -99t-127.5 -53.5t-128.5 -14.5q-196 0 -326.5 124.5t-130.5 314.5zM264 436q0 -118 65.5 -198t178.5 -80q103 0 170 73t67 195t-63 194t-174 72q-113 0 -178.5 -76t-65.5 -180z" />
<glyph unicode="&#xf1;" horiz-adv-x="1140" d="M123 0v1010h176l14 -90q129 110 295 110q420 0 420 -477v-553h-209v553q0 156 -56 226.5t-185 70.5q-81 0 -145.5 -29.5t-100.5 -87.5v-733h-209zM203 1251q19 95 86.5 145t140.5 50q52 0 144 -48t126 -48q89 0 134 102l100 -27q-21 -87 -82 -142.5t-145 -55.5 q-46 0 -140 49t-127 49q-51 0 -83.5 -27.5t-45.5 -70.5z" />
<glyph unicode="&#xf2;" horiz-adv-x="1136" d="M63 504q0 147 58.5 265.5t174.5 189.5t271 71t271.5 -71t175.5 -189.5t59 -265.5q0 -146 -59 -264t-175.5 -189t-271.5 -71t-271 71t-174.5 189t-58.5 264zM276 504q0 -161 76.5 -252.5t214.5 -91.5q140 0 216.5 91.5t76.5 252.5q0 163 -76.5 254.5t-216.5 91.5 q-139 0 -215 -92t-76 -254zM375 1341v170l383 -190v-109z" />
<glyph unicode="&#xf3;" horiz-adv-x="1136" d="M63 504q0 147 58.5 265.5t174.5 189.5t271 71t271.5 -71t175.5 -189.5t59 -265.5q0 -146 -59 -264t-175.5 -189t-271.5 -71t-271 71t-174.5 189t-58.5 264zM276 504q0 -161 76.5 -252.5t214.5 -91.5q140 0 216.5 91.5t76.5 252.5q0 163 -76.5 254.5t-216.5 91.5 q-139 0 -215 -92t-76 -254zM375 1212v109l383 190v-170z" />
<glyph unicode="&#xf4;" horiz-adv-x="1136" d="M63 504q0 147 58.5 265.5t174.5 189.5t271 71t271.5 -71t175.5 -189.5t59 -265.5q0 -146 -59 -264t-175.5 -189t-271.5 -71t-271 71t-174.5 189t-58.5 264zM266 1223v100l301 207l301 -207v-100l-301 159zM276 504q0 -161 76.5 -252.5t214.5 -91.5q140 0 216.5 91.5 t76.5 252.5q0 163 -76.5 254.5t-216.5 91.5q-139 0 -215 -92t-76 -254z" />
<glyph unicode="&#xf5;" horiz-adv-x="1136" d="M63 504q0 147 58.5 265.5t174.5 189.5t271 71t271.5 -71t175.5 -189.5t59 -265.5q0 -146 -59 -264t-175.5 -189t-271.5 -71t-271 71t-174.5 189t-58.5 264zM203 1251q19 95 86.5 145t140.5 50q52 0 144 -48t126 -48q89 0 134 102l100 -27q-21 -87 -82 -142.5t-145 -55.5 q-46 0 -140 49t-127 49q-51 0 -83.5 -27.5t-45.5 -70.5zM276 504q0 -161 76.5 -252.5t214.5 -91.5q140 0 216.5 91.5t76.5 252.5q0 163 -76.5 254.5t-216.5 91.5q-139 0 -215 -92t-76 -254z" />
<glyph unicode="&#xf6;" horiz-adv-x="1136" d="M63 504q0 147 58.5 265.5t174.5 189.5t271 71t271.5 -71t175.5 -189.5t59 -265.5q0 -146 -59 -264t-175.5 -189t-271.5 -71t-271 71t-174.5 189t-58.5 264zM276 504q0 -161 76.5 -252.5t214.5 -91.5q140 0 216.5 91.5t76.5 252.5q0 163 -76.5 254.5t-216.5 91.5 q-139 0 -215 -92t-76 -254zM313 1225v209h162v-209h-162zM659 1225v209h162v-209h-162z" />
<glyph unicode="&#xf7;" horiz-adv-x="1200" d="M129 492v165h942v-165h-942zM487 41v217h207v-217h-207zM487 877v217h207v-217h-207z" />
<glyph unicode="&#xf8;" horiz-adv-x="1161" d="M63 510q0 108 35.5 203.5t100.5 168t163.5 114.5t217.5 42q75 0 159 -22l37 78h178l-73 -142q219 -168 219 -444q0 -145 -60 -263.5t-179.5 -190.5t-278.5 -72q-74 0 -164 20l-37 -74h-172l70 142q-106 79 -161 192.5t-55 247.5zM283 508q0 -130 77 -268l304 620 q-59 12 -84 12q-139 0 -218 -101.5t-79 -262.5zM494 158q70 -11 90 -11q139 0 218 102t79 259q0 77 -20.5 156t-59.5 116z" />
<glyph unicode="&#xf9;" horiz-adv-x="1093" d="M113 438v572h209v-539q0 -157 52.5 -234t170.5 -77q144 0 217 104v746h209v-1010h-191l-14 94q-94 -114 -260 -114q-196 0 -294.5 116.5t-98.5 341.5zM377 1341v170l383 -190v-109z" />
<glyph unicode="&#xfa;" horiz-adv-x="1093" d="M113 438v572h209v-539q0 -157 52.5 -234t170.5 -77q144 0 217 104v746h209v-1010h-191l-14 94q-94 -114 -260 -114q-196 0 -294.5 116.5t-98.5 341.5zM377 1212v109l383 190v-170z" />
<glyph unicode="&#xfb;" horiz-adv-x="1093" d="M113 438v572h209v-539q0 -157 52.5 -234t170.5 -77q144 0 217 104v746h209v-1010h-191l-14 94q-94 -114 -260 -114q-196 0 -294.5 116.5t-98.5 341.5zM268 1223v100l301 207l301 -207v-100l-301 159z" />
<glyph unicode="&#xfc;" horiz-adv-x="1093" d="M113 438v572h209v-539q0 -157 52.5 -234t170.5 -77q144 0 217 104v746h209v-1010h-191l-14 94q-94 -114 -260 -114q-196 0 -294.5 116.5t-98.5 341.5zM315 1225v209h162v-209h-162zM662 1225v209h161v-209h-161z" />
<glyph unicode="&#xfd;" d="M8 1010h232l297 -715l276 715h231l-624 -1506h-221l229 549zM334 1212v109l383 190v-170z" />
<glyph unicode="&#xfe;" horiz-adv-x="1183" d="M123 -494v2030h209v-612q118 106 295 106q152 0 266 -72.5t170.5 -190.5t56.5 -263q0 -107 -33 -201.5t-95 -166.5t-158.5 -114t-215.5 -42q-183 0 -286 112v-586h-209zM317 504q0 -161 70 -259t215 -98t226 99t81 258q0 158 -80 252t-227 94q-146 0 -215.5 -92.5 t-69.5 -253.5z" />
<glyph unicode="&#xff;" d="M8 1010h232l297 -715l276 715h231l-624 -1506h-221l229 549zM270 1225v209h162v-209h-162zM616 1225v209h162v-209h-162z" />
<glyph unicode="&#x152;" horiz-adv-x="2187" d="M78 717q0 223 90 393t247.5 261t358.5 91q127 0 241.5 -42t239.5 -136v148h840v-201h-625v-381h480v-203h-480v-444h644v-203h-859v150q-125 -95 -239.5 -137t-241.5 -42q-150 0 -278.5 53.5t-220.5 149.5t-144.5 236t-52.5 307zM311 717q0 -157 50.5 -278t156.5 -193 t256 -72t256 72t156.5 193t50.5 278t-50.5 278t-156.5 193t-256 72t-256 -72t-156.5 -193t-50.5 -278z" />
<glyph unicode="&#x153;" horiz-adv-x="1843" d="M61 512q0 145 59.5 261.5t178 186.5t276.5 70q123 0 231.5 -50t158.5 -142q58 92 160.5 142t215.5 50q196 0 318.5 -115.5t122.5 -312.5q0 -49 -10 -117h-689q2 -79 24.5 -140.5t54.5 -98t75 -59.5t82 -31.5t80 -8.5q79 0 165.5 22.5t151.5 57.5l19 -178 q-145 -69 -324 -69q-174 0 -279 50t-161 150q-51 -95 -160.5 -147.5t-241.5 -52.5q-155 0 -272 72.5t-176.5 192t-59.5 267.5zM274 504q0 -162 77.5 -253t221.5 -91q143 0 218 96t75 252q0 154 -77 248t-214 94q-146 0 -223.5 -91.5t-77.5 -254.5zM1087 629h482 q-6 100 -65.5 160.5t-162.5 60.5q-208 0 -254 -221z" />
<glyph unicode="&#x178;" horiz-adv-x="1181" d="M-10 1434h231l369 -586l368 586h232l-488 -781v-653h-223v653zM354 1649v209h162v-209h-162zM700 1649v209h162v-209h-162z" />
<glyph unicode="&#x2c6;" horiz-adv-x="913" d="M156 1223v100l301 207l301 -207v-100l-301 159z" />
<glyph unicode="&#x2dc;" horiz-adv-x="1081" d="M176 1251q19 95 86.5 145t140.5 50q52 0 144.5 -48t126.5 -48q88 0 133 102l100 -27q-21 -87 -82 -142.5t-145 -55.5q-46 0 -139.5 49t-126.5 49q-51 0 -83.5 -27.5t-45.5 -70.5z" />
<glyph unicode="&#x2000;" horiz-adv-x="985" />
<glyph unicode="&#x2001;" horiz-adv-x="1970" />
<glyph unicode="&#x2002;" horiz-adv-x="985" />
<glyph unicode="&#x2003;" horiz-adv-x="1970" />
<glyph unicode="&#x2004;" horiz-adv-x="656" />
<glyph unicode="&#x2005;" horiz-adv-x="492" />
<glyph unicode="&#x2006;" horiz-adv-x="328" />
<glyph unicode="&#x2007;" horiz-adv-x="328" />
<glyph unicode="&#x2008;" horiz-adv-x="246" />
<glyph unicode="&#x2009;" horiz-adv-x="394" />
<glyph unicode="&#x200a;" horiz-adv-x="109" />
<glyph unicode="&#x2010;" horiz-adv-x="864" d="M115 481v183h635v-183h-635z" />
<glyph unicode="&#x2011;" horiz-adv-x="864" d="M115 481v183h635v-183h-635z" />
<glyph unicode="&#x2012;" horiz-adv-x="864" d="M115 481v183h635v-183h-635z" />
<glyph unicode="&#x2013;" horiz-adv-x="1024" d="M115 481v183h794v-183h-794z" />
<glyph unicode="&#x2014;" horiz-adv-x="1212" d="M115 481v183h983v-183h-983z" />
<glyph unicode="&#x2018;" horiz-adv-x="399" d="M88 1106v207l174 223l49 -27l-71 -178l69 -18v-207h-221z" />
<glyph unicode="&#x2019;" horiz-adv-x="362" d="M84 1133l70 178l-68 18v207h221v-207l-174 -223z" />
<glyph unicode="&#x201a;" horiz-adv-x="452" d="M115 -197l69 179l-67 18v207h221v-207l-174 -223z" />
<glyph unicode="&#x201c;" horiz-adv-x="829" d="M88 1106v207l174 223l49 -27l-71 -178l69 -18v-207h-221zM518 1106v207l174 223l49 -27l-71 -178l69 -18v-207h-221z" />
<glyph unicode="&#x201d;" horiz-adv-x="792" d="M84 1133l70 178l-68 18v207h221v-207l-174 -223zM514 1133l70 178l-68 18v207h221v-207l-174 -223z" />
<glyph unicode="&#x201e;" horiz-adv-x="923" d="M115 -197l69 179l-67 18v207h221v-207l-174 -223zM586 -197l69 179l-67 18v207h221v-207l-174 -223z" />
<glyph unicode="&#x2022;" horiz-adv-x="622" d="M88 569q0 92 65.5 158t157.5 66t158 -66t66 -158t-66 -157.5t-158 -65.5t-157.5 65.5t-65.5 157.5z" />
<glyph unicode="&#x2026;" horiz-adv-x="1404" d="M115 0v207h209v-207h-209zM598 0v207h209v-207h-209zM1081 0v207h209v-207h-209z" />
<glyph unicode="&#x202f;" horiz-adv-x="394" />
<glyph unicode="&#x2039;" horiz-adv-x="679" d="M27 582l321 422h250l-322 -422l322 -422h-250z" />
<glyph unicode="&#x203a;" horiz-adv-x="679" d="M82 160l321 422l-321 422h250l321 -422l-321 -422h-250z" />
<glyph unicode="&#x205f;" horiz-adv-x="492" />
<glyph unicode="&#x20ac;" horiz-adv-x="1435" d="M63 436l54 154h196q-6 74 -6 127v43h-184l49 141h154q58 232 228 365t404 133q213 0 363 -72l-25 -211q-94 39 -171.5 58.5t-166.5 19.5q-292 0 -380 -293h522l-53 -141h-492v-43q0 -64 8 -127h498l-53 -154h-396q112 -196 346 -196q90 0 167.5 19.5t170.5 57.5l25 -211 q-148 -71 -363 -71q-208 0 -368 105.5t-236 295.5h-291z" />
<glyph unicode="&#x2122;" horiz-adv-x="1492" d="M63 1311v123h545l-14 -123h-201v-621h-125v621h-205zM625 690l98 744h74l204 -344l205 344h74l98 -744h-131l-59 510l-180 -305h-15l-176 305l-63 -510h-129z" />
<glyph unicode="&#x25fc;" horiz-adv-x="1013" d="M0 0v1014h1014v-1014h-1014z" />
</font>
</defs>
</svg>
