<?xml version="1.0" standalone="no"?>
<!DOCTYPE svg PUBLIC "-//W3C//DTD SVG 1.1//EN" "http://www.w3.org/Graphics/SVG/1.1/DTD/svg11.dtd" >
<svg xmlns="http://www.w3.org/2000/svg">
<metadata></metadata>
<defs>
<font id="cabinmedium_italic" horiz-adv-x="1476" >
<font-face units-per-em="2048" ascent="1638" descent="-410" />
<missing-glyph horiz-adv-x="460" />
<glyph horiz-adv-x="2048" />
<glyph horiz-adv-x="2048" />
<glyph unicode="&#xd;" horiz-adv-x="2048" />
<glyph unicode=" "  horiz-adv-x="460" />
<glyph unicode="&#x09;" horiz-adv-x="460" />
<glyph unicode="&#xa0;" horiz-adv-x="460" />
<glyph unicode="!" horiz-adv-x="495" d="M39 0l35 203h205l-35 -203h-205zM141 410l154 1126h233l-241 -1126h-146z" />
<glyph unicode="&#x22;" horiz-adv-x="778" d="M176 922l72 614h211l-146 -614h-137zM573 922l72 614h211l-145 -614h-138z" />
<glyph unicode="#" horiz-adv-x="1349" d="M23 -23l239 461h-223l117 197h213l114 223h-231l90 184h242l207 392h170l-209 -392h229l207 392h168l-207 -392h211l-92 -184h-217l-117 -223h240l-121 -197h-224l-241 -461h-170l241 461h-225l-246 -461h-165zM537 635h229l117 223h-228z" />
<glyph unicode="$" horiz-adv-x="1001" d="M41 244l70 235q48 -53 132.5 -88t198.5 -35q110 0 167 33t57 109q0 41 -28.5 72t-74 52t-100.5 40.5t-110 42.5t-100.5 51t-74 73.5t-28.5 104.5q0 43 12.5 86.5t43 89.5t75.5 83t116.5 64.5t159.5 36.5l12 238h189l-72 -238q89 -6 169.5 -28.5t119.5 -48.5l-57 -209 q-174 102 -304 102q-45 0 -84.5 -6t-76 -19.5t-57.5 -39.5t-21 -62q0 -37 29.5 -65t76.5 -46.5t104 -36.5t114 -42t104 -55.5t76.5 -84t29.5 -121.5q0 -25 -3 -49t-13.5 -59t-27.5 -65.5t-49.5 -63.5t-75.5 -58t-108 -44.5t-145 -26.5l-10 -232h-190l71 230q-107 6 -191 28 t-126 52z" />
<glyph unicode="%" horiz-adv-x="1609" d="M145 967q0 140 53.5 251t137 168.5t178.5 57.5q102 0 162.5 -76.5t60.5 -210.5q0 -209 -105 -341t-261 -132q-105 0 -165.5 75.5t-60.5 207.5zM188 -25l1051 1459h176l-1053 -1459h-174zM283 987q0 -85 30 -133.5t80 -48.5q85 0 147 94.5t62 237.5q0 87 -31 136.5 t-82 49.5q-77 0 -141.5 -95.5t-64.5 -240.5zM907 262q0 140 54 251t137.5 168.5t177.5 57.5q104 0 165.5 -76.5t61.5 -209.5q0 -209 -106 -343.5t-264 -134.5q-104 0 -165 77t-61 210zM1038 274q0 -86 31 -133t84 -47q93 0 155 96t62 248q0 88 -33 138.5t-86 50.5 q-81 0 -147 -99.5t-66 -253.5z" />
<glyph unicode="&#x26;" horiz-adv-x="1177" d="M23 274q0 138 80 251.5t233 224.5q-86 172 -86 301q0 115 65.5 206t165 137t209.5 46q122 0 185 -60.5t63 -165.5q0 -76 -31.5 -147t-89 -131.5t-114 -104.5t-130.5 -92l236 -374q52 94 100 354h199q-59 -305 -193 -500l146 -219h-234l-53 86q-157 -133 -368 -133 q-194 0 -288.5 88t-94.5 233zM240 305q0 -87 49.5 -140.5t159.5 -53.5q139 0 243 104l-278 418q-78 -66 -126 -151t-48 -177zM453 1055q0 -99 53 -205q15 12 49.5 40.5t48 39.5t40 35t37.5 37t28 35.5t23.5 40t12 40.5t5.5 47q0 113 -103 113q-80 0 -137 -59.5t-57 -163.5z " />
<glyph unicode="'" horiz-adv-x="387" d="M176 922l72 614h217l-146 -614h-143z" />
<glyph unicode="(" horiz-adv-x="540" d="M61 274q0 361 95 666.5t309 595.5h188q-92 -128 -160 -250t-128.5 -271.5t-92.5 -322t-32 -360.5q0 -171 26 -331.5t68 -279.5h-189q-84 214 -84 553z" />
<glyph unicode=")" horiz-adv-x="542" d="M-102 -279q91 128 159.5 250t129 272t92.5 322.5t32 360.5q0 344 -94 610h189q83 -220 83 -553q0 -360 -95.5 -666t-307.5 -596h-188z" />
<glyph unicode="*" horiz-adv-x="849" d="M188 1292l93 113l227 -191v320h149l-108 -320l297 191l49 -115l-320 -119l183 -219l-119 -88l-123 275l-221 -281l-84 88l258 221z" />
<glyph unicode="+" horiz-adv-x="884" d="M70 481l32 183h267l45 262h168l-47 -262h266l-33 -183h-264l-49 -272h-166l45 272h-264z" />
<glyph unicode="," horiz-adv-x="452" d="M-23 -197l95 179l-58 18l35 207h217l-37 -207l-211 -223z" />
<glyph unicode="-" horiz-adv-x="819" d="M96 481l31 183h586l-33 -183h-584z" />
<glyph unicode="." horiz-adv-x="444" d="M12 0l37 207h209l-37 -207h-209z" />
<glyph unicode="/" horiz-adv-x="1040" d="M-92 -174l981 1608h227l-981 -1608h-227z" />
<glyph unicode="0" horiz-adv-x="1384" d="M133 539q0 191 61 364.5t160.5 294.5t229.5 192.5t264 71.5q202 0 320 -156.5t118 -431.5q0 -246 -94.5 -454t-257.5 -328.5t-356 -120.5q-215 0 -330 151.5t-115 416.5zM356 555q0 -387 256 -387q191 0 323 192.5t132 491.5q0 210 -69.5 313t-182.5 103 q-80 0 -161 -50.5t-147.5 -139.5t-108.5 -226.5t-42 -296.5z" />
<glyph unicode="1" horiz-adv-x="718" d="M186 0l195 1100q-84 -61 -193 -86l11 196q69 19 160.5 87.5t134.5 136.5h168l-252 -1434h-224z" />
<glyph unicode="2" horiz-adv-x="1024" d="M2 0q316 387 471 597.5t205.5 311.5t50.5 181q0 87 -43 132.5t-127 45.5q-176 0 -336 -201v195q18 24 53 54.5t88.5 65t128.5 57.5t152 23q83 0 144 -27t94.5 -74t49 -100t15.5 -114q0 -155 -114 -357.5t-414 -586.5h416l-35 -203h-799z" />
<glyph unicode="3" horiz-adv-x="1056" d="M-6 80l90 203q109 -109 278 -109q63 0 118 17.5t100.5 53t72.5 97t27 141.5q0 99 -51 155t-180 56h-158l51 172h80q317 0 317 250q0 73 -37.5 113.5t-138.5 40.5q-73 0 -141.5 -21t-114.5 -57l-6 176q40 35 127.5 64.5t196.5 29.5q98 0 168.5 -27t107 -74t52.5 -99 t16 -113q0 -99 -46.5 -185.5t-156.5 -168.5q137 -77 137 -287q0 -125 -50.5 -229t-132.5 -170t-182 -102t-204 -36q-118 0 -219 39t-121 70z" />
<glyph unicode="4" horiz-adv-x="1105" d="M-4 389l790 1045h183l-152 -856h160l-33 -189h-160l-69 -389h-221l69 389h-567zM338 578h258l86 489z" />
<glyph unicode="5" horiz-adv-x="1056" d="M18 63l86 201q45 -40 116 -66t142 -26q135 0 237.5 96.5t102.5 241.5q0 103 -69.5 152t-243.5 49h-186l209 723h602l-58 -203h-413l-94 -330q253 -5 366 -85t113 -261q0 -103 -34.5 -196t-93 -162.5t-134.5 -121t-162 -78t-172 -26.5q-101 0 -203.5 32.5t-110.5 59.5z " />
<glyph unicode="6" horiz-adv-x="1101" d="M100 373q0 139 40 279t105 253.5t146.5 213.5t164.5 168t159.5 107t130.5 40l129 -86q-51 -20 -107.5 -51t-128.5 -84.5t-134.5 -117.5t-120 -154.5t-89.5 -190.5q90 110 260 110q148 0 240 -86t92 -250q0 -144 -70.5 -270.5t-198 -204.5t-280.5 -78q-338 0 -338 402z M311 371q0 -103 53.5 -155t131.5 -52q77 0 142 48.5t100.5 122.5t35.5 152q0 79 -41.5 135t-132.5 56q-115 0 -202 -87.5t-87 -219.5z" />
<glyph unicode="7" horiz-adv-x="985" d="M55 0l688 1231h-546l36 203h863l-811 -1434h-230z" />
<glyph unicode="8" horiz-adv-x="1173" d="M80 322q0 266 297 448q-96 110 -96 268q0 59 14 115.5t48 113t84.5 98.5t131.5 68.5t182 26.5q334 0 334 -286q0 -111 -55 -192t-195 -189q95 -46 146 -127t51 -185q0 -69 -22 -139.5t-68.5 -137t-111 -118.5t-156 -83.5t-197.5 -31.5q-103 0 -180 29.5t-121 80.5 t-65 111.5t-21 129.5zM299 350q0 -95 51.5 -142.5t147.5 -47.5q130 0 215.5 81t85.5 203q0 94 -52.5 156t-140.5 88q-59 -11 -112.5 -38.5t-97.5 -69.5t-70.5 -101.5t-26.5 -128.5zM475 1061q0 -136 146 -197q126 38 183.5 113.5t57.5 159.5q0 139 -160 139 q-112 0 -169.5 -62.5t-57.5 -152.5z" />
<glyph unicode="9" horiz-adv-x="1114" d="M156 905q0 110 42 212t115 178t177.5 121.5t222.5 45.5q76 0 135 -20.5t105 -67t70 -128.5t24 -197q0 -123 -27.5 -244.5t-75 -223t-109.5 -193.5t-131.5 -162t-140 -121.5t-137.5 -78t-121 -26.5l-133 86q53 20 111.5 50.5t134 84t138 116t117 151.5t79.5 186 q-47 -50 -126.5 -76.5t-144.5 -26.5q-148 0 -236.5 85.5t-88.5 248.5zM377 944q0 -79 40 -133.5t130 -54.5q115 0 203 88t88 223q0 102 -52.5 152.5t-128.5 50.5q-80 0 -146 -50t-100 -124.5t-34 -151.5z" />
<glyph unicode=":" horiz-adv-x="444" d="M12 0l37 207h209l-37 -207h-209zM133 694l39 207h209l-37 -207h-211z" />
<glyph unicode=";" horiz-adv-x="468" d="M-23 -197l95 179l-58 18l35 207h217l-37 -209l-211 -221zM135 694l37 207h231l-34 -207h-234z" />
<glyph unicode="&#x3c;" horiz-adv-x="829" d="M63 582l478 422h239l-477 -422l328 -422h-240z" />
<glyph unicode="=" horiz-adv-x="968" d="M86 322l29 167h698l-31 -167h-696zM143 645l29 168h698l-30 -168h-697z" />
<glyph unicode="&#x3e;" horiz-adv-x="831" d="M45 160l477 422l-327 422h239l328 -422l-477 -422h-240z" />
<glyph unicode="?" horiz-adv-x="862" d="M178 0l35 203h211l-37 -203h-209zM207 1397q53 63 140.5 101t182.5 38q85 0 151.5 -30.5t105 -80t58 -106.5t19.5 -117q0 -80 -40 -161.5t-99 -152t-120 -139t-110.5 -146t-62.5 -148.5l-8 -45h-139q8 90 10 98q11 64 44.5 127.5t74 112t86 103.5t82.5 104t61.5 111.5 t24.5 127.5q0 90 -49 137t-125 47q-78 0 -148.5 -42t-116.5 -95z" />
<glyph unicode="@" horiz-adv-x="1384" d="M49 236q0 181 75 348.5t195 286.5t276 190.5t314 71.5q188 0 289.5 -110t101.5 -302q0 -87 -22 -177t-63.5 -170t-112 -130.5t-156.5 -50.5q-33 0 -49 13.5t-16 55.5q0 55 22.5 119t79 186.5t90.5 208.5q-80 109 -211 109q-94 0 -199.5 -57.5t-190.5 -146.5t-141.5 -204 t-56.5 -221q0 -76 34 -125t104 -49q89 0 197 63.5t186 173.5q-1 -5 -7.5 -23.5t-11 -40.5t-4.5 -46q0 -51 19.5 -87t64.5 -36q51 0 132.5 40t135.5 91q-122 -178 -308 -286.5t-380 -108.5q-184 0 -285.5 109t-101.5 305zM434 311q0 86 45 171t110 144.5t138.5 96.5t130.5 37 q68 0 76 -45q-36 -107 -115.5 -224t-169 -195.5t-149.5 -78.5q-66 0 -66 94z" />
<glyph unicode="A" horiz-adv-x="1189" d="M-80 0l723 1434h213l219 -1434h-229l-51 373h-465l-183 -373h-227zM438 575h320l-66 537z" />
<glyph unicode="B" horiz-adv-x="1191" d="M55 0l252 1434h336q93 0 158 -6.5t123 -25.5t92.5 -51.5t54 -85.5t19.5 -128q0 -117 -43.5 -206t-128.5 -167q93 -45 133.5 -110t40.5 -181q0 -110 -34.5 -195.5t-89 -137t-129 -84t-146.5 -44.5t-150 -12h-488zM307 193h217q65 0 114 6.5t93 24t72 46.5t44.5 76 t16.5 111q0 104 -47.5 152t-165.5 48h-262zM422 844h229q223 0 223 241q0 93 -40 125.5t-146 32.5h-196z" />
<glyph unicode="C" horiz-adv-x="1179" d="M92 584q0 186 64.5 350.5t173.5 279.5t256 181.5t309 66.5q98 0 194 -23t162 -61l-59 -204q-61 27 -99 42t-102 29.5t-125 14.5q-124 0 -226.5 -55t-168.5 -147.5t-102.5 -211t-36.5 -248.5q0 -196 85.5 -310t260.5 -114q56 0 123.5 14.5t110 28t118.5 41.5l-14 -205 q-78 -36 -182 -59t-197 -23q-252 0 -398.5 163t-146.5 450z" />
<glyph unicode="D" horiz-adv-x="1394" d="M55 0l252 1434h492q251 0 396.5 -154.5t145.5 -439.5q0 -183 -62.5 -341t-170 -266.5t-253 -170.5t-308.5 -62h-492zM307 203h275q122 0 221.5 50t164 135.5t99.5 197.5t35 239q0 195 -85 300.5t-253 105.5h-275z" />
<glyph unicode="E" horiz-adv-x="1081" d="M55 0l252 1434h832l-37 -203h-608l-68 -381h475l-35 -203h-475l-80 -444h627l-35 -203h-848z" />
<glyph unicode="F" horiz-adv-x="1013" d="M55 0l252 1434h811l-37 -203h-592l-67 -381h457l-35 -203h-457l-115 -647h-217z" />
<glyph unicode="G" horiz-adv-x="1290" d="M92 586q0 185 63.5 349t172 279t256 181.5t311.5 66.5q99 0 208 -23.5t175 -58.5l-57 -198q-76 34 -171.5 56t-179.5 22q-104 0 -193 -37t-151.5 -100t-107 -147t-65.5 -178.5t-21 -193.5q0 -201 91.5 -315.5t272.5 -114.5q109 0 201 33l57 321h-168l33 191h387 l-112 -639q-84 -45 -221.5 -77t-247.5 -32q-244 0 -388.5 164.5t-144.5 450.5z" />
<glyph unicode="H" horiz-adv-x="1427" d="M55 0l252 1434h217l-102 -580h670l102 580h219l-254 -1434h-217l113 645h-668l-115 -645h-217z" />
<glyph unicode="I" horiz-adv-x="542" d="M55 0l252 1434h219l-252 -1434h-219z" />
<glyph unicode="J" horiz-adv-x="540" d="M-152 -352l7 143h34q74 0 109.5 47.5t56.5 159.5l254 1436h217l-264 -1493q-25 -144 -117 -218.5t-241 -74.5h-56z" />
<glyph unicode="K" horiz-adv-x="1165" d="M55 0l252 1434h217l-252 -1434h-217zM463 760l590 674h241l-592 -674l340 -760h-241z" />
<glyph unicode="L" horiz-adv-x="972" d="M55 0l252 1434h217l-217 -1231h567l-36 -203h-783z" />
<glyph unicode="M" horiz-adv-x="1581" d="M-8 0l432 1434h194l197 -691l438 691h195l-72 -1434h-229l65 1020l-469 -694l-227 694l-297 -1020h-227z" />
<glyph unicode="N" horiz-adv-x="1357" d="M55 0l252 1434h221l418 -1022l178 1022h219l-253 -1434h-181l-444 1081l-193 -1081h-217z" />
<glyph unicode="O" d="M92 582q0 149 41 285.5t115 243.5t172 186.5t218 122t247 42.5q251 0 395.5 -161.5t144.5 -448.5q0 -186 -64 -350.5t-171 -280.5t-252 -183t-303 -67q-252 0 -397.5 162t-145.5 449zM332 596q0 -193 84 -307.5t254 -114.5q116 0 214.5 55.5t163.5 148t101.5 212 t36.5 248.5q0 194 -84 308t-254 114q-116 0 -214.5 -55.5t-163.5 -148t-101.5 -212t-36.5 -248.5z" />
<glyph unicode="P" horiz-adv-x="1136" d="M55 0l252 1434h393q96 0 162.5 -7.5t126.5 -30t95 -62t55 -103.5t20 -156q0 -126 -36.5 -228.5t-93 -166.5t-130 -108t-144 -62t-137.5 -18h-253l-89 -492h-221zM399 690h222q86 0 148.5 27t97 76.5t50 109.5t15.5 135q0 111 -48 158t-188 47h-198z" />
<glyph unicode="Q" d="M92 582q0 185 63.5 349.5t171 280t252.5 183t304 67.5q253 0 397.5 -162.5t144.5 -441.5q0 -165 -55.5 -314t-169.5 -302l98 -103l-149 -141l-107 113q-192 -140 -413 -140q-246 0 -391.5 163t-145.5 448zM332 594q0 -195 83.5 -307.5t254.5 -112.5q136 0 233 70 l-147 162l149 145l150 -166q66 109 101.5 207.5t35.5 236.5q0 202 -85 316.5t-257 114.5q-118 0 -217 -55.5t-164 -148.5t-101 -212.5t-36 -249.5z" />
<glyph unicode="R" horiz-adv-x="1191" d="M55 0l252 1434h463q187 0 290 -77t103 -255q0 -170 -87.5 -295.5t-227.5 -198.5l196 -608h-229l-182 551h-258l-99 -551h-221zM410 758h219q143 0 222 75t79 220q0 103 -49.5 152.5t-175.5 49.5h-205z" />
<glyph unicode="S" horiz-adv-x="1124" d="M12 68l72 251q53 -60 153.5 -102.5t229.5 -42.5q137 0 222 55t85 166q0 41 -14 75t-35 57.5t-59.5 46.5t-73 38.5t-90.5 36.5q-35 13 -48.5 18.5t-46.5 19t-48.5 22t-44.5 24t-43.5 29t-36 32.5t-32.5 38.5t-22.5 43.5t-16.5 52t-5 59q0 59 18.5 121.5t61.5 126.5 t105 114t158.5 81.5t213.5 31.5q125 0 236.5 -31.5t162.5 -70.5l-61 -227q-106 64 -189.5 96.5t-169.5 32.5q-40 0 -80.5 -7t-80.5 -23.5t-71 -40.5t-50 -61t-19 -81q0 -76 56.5 -119.5t179.5 -87.5q155 -57 217 -94q155 -92 173 -256q3 -24 3 -50q0 -69 -17.5 -133.5 t-61.5 -127t-109.5 -108t-169.5 -74t-234 -28.5q-138 0 -249 28.5t-169 68.5z" />
<glyph unicode="T" horiz-adv-x="1114" d="M176 1231l37 203h973l-37 -203h-377l-217 -1231h-217l217 1231h-379z" />
<glyph unicode="U" horiz-adv-x="1386" d="M131 424q0 78 19 186l145 824h217l-129 -732q-25 -143 -25 -221q2 -146 61 -226.5t199 -80.5q80 0 145 29t109 76.5t78 118.5t54 142.5t36 161.5l129 732h217l-145 -824q-54 -302 -220 -470.5t-437 -168.5q-226 0 -339.5 117.5t-113.5 335.5z" />
<glyph unicode="V" horiz-adv-x="1247" d="M150 1434h227l180 -1174l586 1174h227l-733 -1434h-254z" />
<glyph unicode="W" horiz-adv-x="1851" d="M184 1434h230l69 -1133l508 1114h166l119 -1104l467 1123h227l-639 -1434h-207l-106 1100l-500 -1100h-215z" />
<glyph unicode="X" horiz-adv-x="1187" d="M-88 0l575 733l-307 701h252l217 -551l412 551h244l-570 -705l334 -729h-246l-243 567l-422 -567h-246z" />
<glyph unicode="Y" horiz-adv-x="1155" d="M154 1434h231l233 -588l433 588h229l-590 -781l-115 -653h-221l115 653z" />
<glyph unicode="Z" horiz-adv-x="1052" d="M-82 0l862 1231h-559l35 203h920l-863 -1231h561l-36 -203h-920z" />
<glyph unicode="[" horiz-adv-x="641" d="M-12 -276l319 1812h486l-31 -168h-293l-260 -1477h293l-29 -167h-485z" />
<glyph unicode="\" horiz-adv-x="1026" d="M213 1434h223l414 -1608h-223z" />
<glyph unicode="]" horiz-adv-x="653" d="M-131 -276l35 198h293l249 1413h-292l34 201h486l-320 -1812h-485z" />
<glyph unicode="^" horiz-adv-x="962" d="M246 868l43 246l467 440l309 -440l-41 -246l-313 441z" />
<glyph unicode="_" horiz-adv-x="1064" d="M-147 -256l32 182h1055l-31 -182h-1056z" />
<glyph unicode="`" horiz-adv-x="571" d="M346 1341l31 170l319 -190l-20 -109z" />
<glyph unicode="a" horiz-adv-x="1134" d="M41 408q0 117 40.5 229t110.5 199.5t174.5 140.5t223.5 53q156 0 225 -106l35 86h188l-120 -707q-9 -49 -9 -78q0 -46 21 -62t78 -16l-54 -167q-63 0 -98 3.5t-69.5 17t-54.5 41.5t-34 75q-57 -63 -137.5 -100t-167.5 -37q-160 0 -256 120.5t-96 307.5zM258 426 q0 -121 50 -193.5t151 -72.5q134 0 220.5 119.5t86.5 298.5q0 135 -51.5 203.5t-145.5 68.5q-88 0 -160 -58.5t-111.5 -155.5t-39.5 -210z" />
<glyph unicode="b" horiz-adv-x="1093" d="M16 0l271 1536h211l-109 -614q105 108 264 108q176 0 270.5 -121.5t94.5 -306.5q0 -163 -71 -305.5t-196.5 -229.5t-275.5 -87q-154 0 -237 122l-29 -102h-193zM295 420q0 -260 188 -260q136 0 227 125.5t91 296.5q0 123 -50.5 195.5t-150.5 72.5q-133 0 -219 -124.5 t-86 -305.5z" />
<glyph unicode="c" horiz-adv-x="866" d="M43 410q0 121 37.5 231.5t108 198t181.5 139t248 51.5q167 0 259 -65l-56 -185q-106 70 -223 70q-107 0 -185.5 -57.5t-116.5 -151.5t-38 -211q0 -272 221 -272q120 0 246 69l-8 -172q-121 -75 -281 -75q-104 0 -181 33t-122.5 92.5t-67.5 135.5t-22 169z" />
<glyph unicode="d" horiz-adv-x="1093" d="M41 408q0 117 40.5 229t111 199.5t175 140.5t224.5 53q156 0 225 -106l109 612h209l-271 -1536h-194l8 102q-125 -122 -277 -122q-166 0 -263 120t-97 308zM258 426q0 -121 50 -193.5t153 -72.5q134 0 219.5 119.5t85.5 298.5q0 136 -50.5 204t-144.5 68 q-89 0 -161 -58.5t-112 -155.5t-40 -210z" />
<glyph unicode="e" horiz-adv-x="960" d="M41 416q0 118 40.5 229t112 196.5t177 137t227.5 51.5q149 0 230 -73.5t81 -196.5q0 -148 -120.5 -243t-352.5 -95q-100 0 -172 16q3 -278 252 -278q66 0 146.5 18t144.5 49l-14 -170q-162 -77 -326 -77q-209 0 -317.5 121.5t-108.5 314.5zM285 578q10 -2 30 -7 t41.5 -7.5t53.5 -2.5q89 0 153.5 16t98 43.5t48.5 57.5t15 63q0 58 -41.5 83.5t-99.5 25.5q-102 0 -180 -73.5t-119 -198.5z" />
<glyph unicode="f" horiz-adv-x="643" d="M70 0l149 844h-143l49 166h123l43 252q23 128 94 201t215 73q24 0 51.5 -3t44 -6t41 -8t27.5 -6l-53 -174q-58 17 -95 17q-64 0 -87.5 -39.5t-49.5 -177.5l-22 -129h225l-31 -166h-223l-149 -844h-209z" />
<glyph unicode="g" horiz-adv-x="958" d="M-90 -250q0 73 50 146.5t153 121.5q-66 44 -66 115q0 43 31.5 87.5t95.5 76.5q-100 103 -100 266q0 90 32.5 173.5t90 149t144.5 105t189 39.5q132 0 213 -69q90 53 220 53h43l-41 -135h-70q-23 0 -76 -11q33 -70 33 -172q0 -116 -54.5 -221.5t-160.5 -174.5t-238 -69 q-53 0 -112 17q-39 -24 -39 -58q0 -33 50.5 -50.5t186.5 -41.5q35 -7 59 -12.5t62 -17t64 -23.5t56 -32.5t48 -44t30.5 -56.5t12.5 -72q0 -143 -141.5 -247.5t-370.5 -104.5q-104 0 -183.5 23.5t-124 62.5t-66 83.5t-21.5 92.5zM96 -217q0 -62 60.5 -100.5t169.5 -38.5 q126 0 209 49.5t83 116.5q0 34 -25 59t-68.5 39.5t-86 23.5t-95.5 18t-79 17q-70 -25 -119 -75t-49 -109zM266 578q0 -91 41 -140t117 -49q105 0 170 88t65 207q0 90 -40 137t-117 47q-107 0 -171.5 -84.5t-64.5 -205.5z" />
<glyph unicode="h" horiz-adv-x="1056" d="M16 0l271 1536h211l-109 -614q61 58 120.5 83t133.5 25q156 0 230.5 -89.5t74.5 -248.5q0 -29 -5 -70t-29.5 -188.5t-75.5 -433.5h-209q76 437 92 538t16 134q0 94 -37 136t-120 42q-135 0 -224 -117l-129 -733h-211z" />
<glyph unicode="i" horiz-adv-x="456" d="M18 0l177 1010h211l-179 -1010h-209zM231 1212l39 222h209l-37 -222h-211z" />
<glyph unicode="j" horiz-adv-x="454" d="M-172 -496l8 164q79 6 106.5 39.5t49.5 151.5l203 1151h208l-217 -1231q-22 -128 -96.5 -193.5t-187.5 -74.5zM231 1212l39 222h209l-39 -222h-209z" />
<glyph unicode="k" horiz-adv-x="909" d="M16 0l271 1536h211l-172 -967l393 441h244l-443 -471l266 -539h-241l-232 492l-86 -492h-211z" />
<glyph unicode="l" horiz-adv-x="501" d="M51 172q0 28 236 1364h209q-223 -1272 -226 -1303v-10q0 -47 24 -61.5t85 -14.5l-51 -167h-74q-104 0 -153.5 53t-49.5 139z" />
<glyph unicode="m" horiz-adv-x="1662" d="M16 0l179 1010h167v-97q123 117 275 117q208 0 266 -186q49 83 141.5 134.5t215.5 51.5q149 0 225 -79t76 -228q0 -38 -19 -156t-98 -567h-209q113 641 113 684q0 89 -37.5 127.5t-114.5 38.5q-63 0 -111.5 -22.5t-77 -61.5t-44 -79t-23.5 -87l-104 -600h-209 q110 624 110 684q0 92 -41.5 129t-115.5 37q-140 0 -224 -115l-129 -735h-211z" />
<glyph unicode="n" horiz-adv-x="1069" d="M16 0l179 1010h180v-90q66 61 131.5 85.5t144.5 24.5q310 0 310 -330q0 -38 -18.5 -158t-92.5 -542h-211q109 617 109 672q0 92 -38.5 135t-123.5 43q-147 0 -230 -117l-129 -733h-211z" />
<glyph unicode="o" horiz-adv-x="1079" d="M41 410q0 163 71.5 304.5t203 228.5t292.5 87q129 0 220 -58.5t133.5 -154t42.5 -219.5q0 -121 -43 -234t-117 -197.5t-180.5 -135.5t-227.5 -51q-192 0 -293.5 120t-101.5 310zM256 426q0 -130 52.5 -198t156.5 -68q144 0 232.5 122t88.5 302q0 266 -206 266 q-144 0 -234 -122.5t-90 -301.5z" />
<glyph unicode="p" horiz-adv-x="1093" d="M-72 -496l267 1506h174v-113q68 68 132.5 100.5t149.5 32.5q119 0 203 -58.5t123 -153.5t39 -216q0 -161 -65.5 -302t-190 -230.5t-279.5 -89.5q-82 0 -140 28.5t-99 91.5l-105 -596h-209zM293 422q0 -132 49.5 -197t140.5 -65q136 0 226 126.5t90 299.5q0 122 -50 193 t-149 71q-135 0 -221 -123.5t-86 -304.5z" />
<glyph unicode="q" horiz-adv-x="1095" d="M41 397q0 121 40 235.5t109.5 202.5t173 141.5t222.5 53.5q89 0 142.5 -32.5t98.5 -100.5l39 113h176l-264 -1506h-211l107 596q-120 -120 -268 -120q-179 0 -272 115.5t-93 301.5zM260 426q0 -123 49.5 -194.5t149.5 -71.5q135 0 221 121.5t86 302.5q0 134 -50 200 t-141 66t-164 -58.5t-112 -155t-39 -210.5z" />
<glyph unicode="r" horiz-adv-x="651" d="M18 0l177 1010h190l-16 -146q152 176 307 176h43l-78 -215h-78q-57 0 -117 -36t-90 -84l-125 -705h-213z" />
<glyph unicode="s" horiz-adv-x="817" d="M-23 63l56 191q40 -38 114.5 -70t159.5 -32q92 0 136 40t44 99q0 32 -11.5 55.5t-37.5 40t-45.5 24.5t-56.5 21q-44 14 -70.5 24t-62 30.5t-55 43.5t-34 60t-14.5 84q0 48 13 95.5t43.5 95t75.5 84t115.5 59t156.5 22.5q88 0 159 -20.5t111 -48.5l-53 -185 q-33 40 -95.5 68t-133.5 28q-80 0 -134.5 -37t-54.5 -106q0 -25 9.5 -45t21.5 -32.5t40.5 -25.5t49 -20.5t65.5 -21.5q45 -15 76.5 -30.5t66 -44t52.5 -73.5t18 -106q0 -37 -7.5 -73.5t-24 -77.5t-48 -75.5t-75.5 -63t-111 -44.5t-149 -16q-109 0 -188.5 25t-121.5 58z" />
<glyph unicode="t" horiz-adv-x="649" d="M76 844l47 166h125l43 241l213 21l-47 -262h221l-29 -166h-221q-104 -591 -104 -621q0 -50 28 -63t115 -13h57l-49 -167h-162q-107 0 -157 55t-50 141q0 34 113 668h-143z" />
<glyph unicode="u" horiz-adv-x="1042" d="M70 293q0 73 114 717h209q-108 -623 -108 -666q0 -184 157 -184q125 0 207 104l133 746h209l-178 -1010h-192l6 94q-60 -60 -119 -87t-143 -27q-145 0 -220 79.5t-75 233.5z" />
<glyph unicode="v" horiz-adv-x="925" d="M72 1010h215l106 -768l377 768h213l-534 -1010h-197z" />
<glyph unicode="w" horiz-adv-x="1382" d="M98 1010h217l31 -770l318 743h186l53 -743l305 770h217l-454 -1010h-195l-65 717l-322 -717h-192z" />
<glyph unicode="x" horiz-adv-x="927" d="M-78 0l400 506l-218 504h244l125 -369l248 369h250l-414 -514l240 -496h-246l-139 360l-246 -360h-244z" />
<glyph unicode="y" horiz-adv-x="983" d="M-20 -496l307 549l-221 957h233l133 -715l377 715h233l-845 -1506h-217z" />
<glyph unicode="z" horiz-adv-x="903" d="M-59 0l594 840h-426l28 170h791l-594 -838h430l-33 -172h-790z" />
<glyph unicode="{" horiz-adv-x="598" d="M41 629q90 51 135.5 118.5t65.5 182.5q8 48 19 149t18 140q18 102 66.5 168.5t147 106t250.5 42.5l-30 -170q-36 -1 -64.5 -3t-53 -8t-42.5 -12t-34 -20t-26.5 -24.5t-21 -34t-17 -41t-14.5 -52.5t-13 -60.5t-13 -72.5q-5 -28 -12.5 -87t-12.5 -87q-14 -76 -46.5 -129 t-113.5 -106q86 -72 86 -166q0 -48 -17.5 -108.5t-34.5 -135t-17 -156.5q0 -96 44.5 -132.5t164.5 -39.5l-31 -167q-189 3 -275 65.5t-86 185.5q0 56 42 208.5t42 228.5q0 143 -106 217z" />
<glyph unicode="|" horiz-adv-x="464" d="M-39 -428l346 1964h180l-346 -1964h-180z" />
<glyph unicode="}" horiz-adv-x="595" d="M-139 -276l30 167q36 1 64.5 3t53.5 9t42.5 12.5t34 20t26.5 24.5t21 34.5t17 41t14 52.5t12.5 60.5t13.5 72.5q6 37 14 100t13 91q12 68 44.5 116.5t115.5 100.5q-86 70 -86 178q0 34 16.5 91t33.5 135t17 163q0 97 -43 132t-163 38l28 170q193 -4 277 -68t84 -186 q0 -56 -41 -207t-41 -227q0 -145 104 -219q-92 -50 -136 -119t-65 -180q-8 -49 -18.5 -150.5t-17.5 -140.5q-29 -157 -137 -234t-328 -81z" />
<glyph unicode="~" horiz-adv-x="911" d="M76 389q30 95 104 144t150 49q43 0 83.5 -24t75.5 -47.5t62 -23.5q42 0 78 29t57 74l109 -27q-32 -88 -99 -143t-151 -55q-38 0 -80 24.5t-80 49t-66 24.5q-81 0 -124 -98z" />
<glyph unicode="&#xa1;" horiz-adv-x="487" d="M-70 -512l244 1126h143l-153 -1126h-234zM178 821l37 203h207l-37 -203h-207z" />
<glyph unicode="&#xa2;" horiz-adv-x="917" d="M84 608q0 114 34.5 220.5t97.5 193.5t160.5 146t215.5 75l16 289h162l-84 -289q148 -7 232 -67l-52 -181q-104 74 -229 74q-95 0 -171 -62t-116.5 -162t-40.5 -216q0 -121 53.5 -197t151.5 -76q123 0 252 72l-10 -180q-105 -59 -254 -68l-13 -243h-163l75 243 q-156 25 -236.5 142.5t-80.5 285.5z" />
<glyph unicode="&#xa3;" horiz-adv-x="989" d="M-37 0q124 138 200 293.5t132 363.5h-172l55 140h150l43 241q12 68 26.5 120.5t44 109t68.5 93.5t101.5 61t142.5 24q221 0 241 -191l-94 -94q-6 30 -10.5 47.5t-14 38.5t-22.5 32.5t-34 19.5t-50 8q-41 0 -73 -16t-53 -41t-38 -68.5t-27.5 -85t-21.5 -103.5l-35 -196 h355l-56 -140h-329q-34 -142 -73 -243.5t-116 -243.5h485l-28 -170h-797z" />
<glyph unicode="&#xa4;" horiz-adv-x="1216" d="M41 121l174 205q-76 127 -76 292q0 267 215 482l-104 205l102 67l107 -207q126 72 260 72q133 0 235 -74l183 209l77 -67l-178 -207q78 -121 78 -293q0 -260 -215 -481l107 -203l-103 -68l-108 207q-121 -72 -260 -72q-140 0 -236 72l-180 -207zM354 625 q0 -126 53.5 -203.5t155.5 -77.5q98 0 176 64t119 167.5t41 225.5q0 125 -54 202.5t-155 77.5q-98 0 -176 -63.5t-119 -167t-41 -225.5z" />
<glyph unicode="&#xa5;" horiz-adv-x="1325" d="M172 293l66 121h276l25 133h-322l64 115h256l-334 772h221l272 -607l486 607h223l-606 -772h291l-68 -115h-266l-23 -133h311l-65 -121h-268l-52 -293h-217l50 293h-320z" />
<glyph unicode="&#xa6;" horiz-adv-x="458" d="M-37 -430l139 782h166l-139 -782h-166zM147 614l162 922h166l-160 -922h-168z" />
<glyph unicode="&#xa7;" horiz-adv-x="894" d="M12 -92l49 160q48 -40 109.5 -65.5t118.5 -25.5q89 0 149 44.5t60 134.5q0 44 -22.5 76t-58 52t-79 38t-87 40t-79 51.5t-58 80.5t-22.5 118q0 130 61 228t179 141q-64 72 -64 170q0 49 11 98.5t39.5 102t70.5 93t110.5 66t153.5 25.5q78 0 152.5 -25.5t105.5 -56.5 l-47 -160q-117 95 -229 95q-81 0 -142 -51t-61 -130q0 -41 22 -72t57 -52t77.5 -40.5t84.5 -44t77 -56t57 -82.5t22 -118q0 -50 -11 -97.5t-36 -97.5t-73 -93t-115 -72q59 -73 59 -170q0 -50 -11.5 -100.5t-40 -102.5t-71 -91.5t-110.5 -65t-152 -25.5q-79 0 -153.5 23.5 t-102.5 56.5zM264 684q0 -137 230 -215q57 14 110 78t53 133q0 143 -217 197q-21 -1 -48.5 -12t-57.5 -32t-50 -60.5t-20 -88.5z" />
<glyph unicode="&#xa8;" horiz-adv-x="796" d="M379 1225l39 209h162l-37 -209h-164zM684 1225l37 209h164l-37 -209h-164z" />
<glyph unicode="&#xa9;" horiz-adv-x="1386" d="M119 618q0 172 57.5 322.5t155 254.5t229.5 164t277 60q220 0 350.5 -147t130.5 -393q0 -172 -57.5 -322.5t-154.5 -255.5t-229 -165t-278 -60q-219 0 -350 148t-131 394zM246 621q0 -128 39.5 -224.5t125.5 -154.5t210 -58q108 0 200.5 36.5t159.5 101.5t114.5 151.5 t71 188t23.5 210.5q0 197 -94 317t-277 120q-135 0 -245.5 -56t-181 -151.5t-108.5 -219t-38 -261.5zM422 676q0 180 108.5 297t266.5 117q99 0 176 -41l-43 -142q-84 43 -160 43q-86 0 -138 -74.5t-52 -181.5q0 -72 29.5 -114.5t88.5 -42.5q74 0 176 45l-10 -140 q-79 -43 -190 -43q-115 0 -183.5 75.5t-68.5 201.5z" />
<glyph unicode="&#xaa;" horiz-adv-x="694" d="M147 1032q0 56 29 100.5t69 69.5t91.5 42.5t89 24t68.5 7.5q-3 38 -18 54t-54 16q-69 0 -170 -37l12 137q122 43 232 43q77 0 128.5 -38.5t51.5 -109.5q0 -38 -37 -237q-4 -36 -4 -43q0 -31 29 -31h26l-35 -141h-82q-33 0 -66.5 16t-43.5 39q-28 -26 -80.5 -40.5 t-103.5 -14.5q-56 0 -94 38t-38 105zM334 1057q0 -45 55 -45q30 0 64 22l22 129q-13 -1 -33 -6.5t-46 -17t-44 -33t-18 -49.5z" />
<glyph unicode="&#xab;" horiz-adv-x="1138" d="M37 582l356 422h244l-356 -422l208 -422h-245zM526 582l359 422h243l-358 -422l209 -422h-244z" />
<glyph unicode="&#xac;" horiz-adv-x="1138" d="M139 684l27 147h866l-92 -522h-149l65 375h-717z" />
<glyph unicode="&#xad;" horiz-adv-x="821" d="M94 471l35 193h586l-35 -193h-586z" />
<glyph unicode="&#xae;" horiz-adv-x="1386" d="M119 618q0 172 57.5 322.5t155 254.5t229.5 164t277 60q220 0 350.5 -147t130.5 -393q0 -172 -57.5 -322.5t-154.5 -255.5t-229 -165t-278 -60q-219 0 -350 148t-131 394zM248 623q0 -129 39 -226.5t124.5 -156t209.5 -58.5q107 0 199.5 37t159.5 101.5t115 152 t71.5 189.5t23.5 212q0 197 -94 317t-277 120q-134 0 -244 -56.5t-180.5 -152t-108.5 -219t-38 -260.5zM432 426l117 666h235q89 0 138 -37t49 -125q0 -142 -133 -228l90 -276h-154l-78 236h-75l-41 -236h-148zM645 793h57q113 0 113 116q0 64 -78 64h-59z" />
<glyph unicode="&#xb0;" horiz-adv-x="645" d="M182 1214q0 135 86 233.5t217 98.5q99 0 153 -64.5t54 -164.5q0 -136 -86 -233t-219 -97q-98 0 -151.5 64t-53.5 163zM293 1217q0 -69 27.5 -113.5t78.5 -44.5q81 0 131 78.5t50 179.5q0 68 -27 113t-80 45q-75 0 -127.5 -79.5t-52.5 -178.5z" />
<glyph unicode="&#xb1;" horiz-adv-x="956" d="M41 78l29 155h696l-27 -155h-698zM143 657l27 156h270l52 277h155l-49 -277h270l-26 -156h-273l-49 -282h-155l51 282h-273z" />
<glyph unicode="&#xb2;" horiz-adv-x="600" d="M57 655q174 204 261.5 319t114 168t26.5 95q0 36 -17.5 57t-50.5 21q-62 0 -116 -44.5t-80 -84.5v147q33 43 100 78t149 35q94 0 135.5 -49.5t41.5 -120.5q0 -78 -56.5 -179.5t-193.5 -277.5h196l-28 -164h-482z" />
<glyph unicode="&#xb3;" horiz-adv-x="600" d="M59 700l68 152q0 -18 49 -33.5t94 -15.5q154 0 154 121q0 90 -86 90h-117l37 125h59q72 0 102 31t30 71q0 30 -20.5 49t-66.5 19q-87 0 -129 -31l-4 117q24 19 77.5 35t101.5 16q60 0 103.5 -16.5t65 -44t30.5 -55.5t9 -60q0 -60 -25.5 -110t-55.5 -75q51 -78 51 -147 q0 -94 -51 -164t-125.5 -102.5t-157.5 -32.5q-63 0 -123.5 21.5t-69.5 39.5z" />
<glyph unicode="&#xb4;" horiz-adv-x="571" d="M324 1212l18 109l387 190l-31 -170z" />
<glyph unicode="&#xb5;" horiz-adv-x="1171" d="M-41 -496l266 1506h207l-92 -535q-14 -74 -14 -137q2 -90 39 -134t120 -44q64 0 114 25t97 81l133 744h207l-116 -660q-13 -86 -13 -127q0 -40 15 -58t47 -18h35l-54 -167h-71q-147 0 -181 135q-125 -135 -264 -135q-56 0 -95.5 12.5t-76.5 48.5l-94 -537h-209z" />
<glyph unicode="&#xb6;" horiz-adv-x="1196" d="M127 899q0 96 42 190t119 171.5t199.5 125.5t270.5 48h491l-30 -166h-134l-225 -1268h-137l223 1268h-143l-223 -1268h-111l86 487q-108 7 -192.5 44.5t-134.5 95.5t-75.5 127t-25.5 145z" />
<glyph unicode="&#xb7;" horiz-adv-x="471" d="M88 436l47 266h236l-47 -266h-236z" />
<glyph unicode="&#xb8;" horiz-adv-x="569" d="M184 -395l178 272l170 14l-227 -272z" />
<glyph unicode="&#xb9;" horiz-adv-x="438" d="M156 655l96 543q-34 -17 -86 -22l16 133q30 3 81 43t65 78h131l-137 -775h-166z" />
<glyph unicode="&#xba;" horiz-adv-x="731" d="M166 1143q0 137 100.5 241.5t253.5 104.5q118 0 183 -72t65 -180q0 -138 -100 -243t-254 -105q-118 0 -183 72.5t-65 181.5zM344 1151q0 -56 24 -91.5t70 -35.5q65 0 108.5 61t43.5 144q0 56 -25 91.5t-69 35.5q-65 0 -108.5 -61t-43.5 -144z" />
<glyph unicode="&#xbb;" horiz-adv-x="1140" d="M6 160l359 422l-209 422h243l209 -422l-358 -422h-244zM498 160l356 422l-209 422h244l209 -422l-357 -422h-243z" />
<glyph unicode="&#xbc;" horiz-adv-x="1394" d="M-10 -174l981 1608h227l-981 -1608h-227zM184 655l97 543q-34 -17 -86 -22l16 133q30 3 80.5 43t64.5 78h131l-137 -775h-166zM668 211l450 563h144l-78 -436h94l-23 -127h-94l-37 -211h-166l39 211h-329zM903 338h117l35 201z" />
<glyph unicode="&#xbd;" horiz-adv-x="1398" d="M-14 -174l981 1608h227l-981 -1608h-227zM180 655l96 543q-34 -17 -86 -22l17 133q30 3 80.5 43t64.5 78h131l-137 -775h-166zM739 0q174 204 261.5 319t114 168t26.5 95q0 36 -17.5 56.5t-50.5 20.5q-62 0 -116 -44.5t-80 -84.5v148q33 43 100 78t149 35 q94 0 135.5 -49.5t41.5 -120.5q0 -78 -56.5 -179.5t-193.5 -277.5h196l-28 -164h-482z" />
<glyph unicode="&#xbe;" horiz-adv-x="1708" d="M84 700l68 152q0 -18 49 -33.5t94 -15.5q154 0 154 121q0 90 -87 90h-116l37 125h59q71 0 101 30.5t30 71.5q0 68 -86 68q-87 0 -129 -31l-4 117q24 20 77 35.5t101 15.5q61 0 104 -16.5t64.5 -44t31 -55.5t9.5 -60q0 -60 -26 -110t-56 -75q51 -78 51 -147 q0 -94 -51 -164t-125.5 -102.5t-157.5 -32.5q-63 0 -123 21.5t-69 39.5zM297 -174l981 1608h227l-981 -1608h-227zM979 211l451 563h143l-78 -436h94l-22 -127h-94l-37 -211h-166l39 211h-330zM1214 338h117l35 201z" />
<glyph unicode="&#xbf;" horiz-adv-x="860" d="M-20 -178q0 80 40 161.5t99 152t120 139t110.5 146t62.5 148.5l8 45h139q-8 -90 -10 -98q-11 -64 -44.5 -127.5t-74 -112t-86 -103.5t-82.5 -104t-61.5 -111.5t-24.5 -127.5q0 -90 49 -137t125 -47q78 0 148 42t116 95l23 -156q-54 -63 -142.5 -101t-183.5 -38 q-84 0 -149.5 30.5t-104 80t-58 106.5t-19.5 117zM420 821l35 203h211l-35 -203h-211z" />
<glyph unicode="&#xc0;" horiz-adv-x="1189" d="M-80 0l723 1434h213l219 -1434h-229l-51 373h-465l-183 -373h-227zM438 575h320l-66 537zM631 1765l31 170l319 -190l-20 -109z" />
<glyph unicode="&#xc1;" horiz-adv-x="1189" d="M-80 0l723 1434h213l219 -1434h-229l-51 373h-465l-183 -373h-227zM438 575h320l-66 537zM610 1636l19 109l387 190l-31 -170z" />
<glyph unicode="&#xc2;" horiz-adv-x="1189" d="M-80 0l723 1434h213l219 -1434h-229l-51 373h-465l-183 -373h-227zM438 575h320l-66 537zM510 1647l18 100l314 207l241 -207l-18 -100l-248 159z" />
<glyph unicode="&#xc3;" horiz-adv-x="1189" d="M-80 0l723 1434h213l219 -1434h-229l-51 373h-465l-183 -373h-227zM438 575h320l-66 537zM451 1675q30 95 104 145t150 50q33 0 66 -15t55 -33t49.5 -33t50.5 -15q41 0 76.5 28.5t56.5 73.5l108 -27q-30 -87 -96.5 -142.5t-150.5 -55.5q-39 0 -81.5 24.5t-80.5 49 t-66 24.5q-79 0 -125 -98z" />
<glyph unicode="&#xc4;" horiz-adv-x="1189" d="M-80 0l723 1434h213l219 -1434h-229l-51 373h-465l-183 -373h-227zM438 575h320l-66 537zM553 1649l39 209h162l-37 -209h-164zM858 1649l37 209h164l-37 -209h-164z" />
<glyph unicode="&#xc5;" horiz-adv-x="1189" d="M-80 0l723 1434h213l219 -1434h-229l-51 373h-465l-183 -373h-227zM438 575h320l-66 537zM612 1757q0 85 66 149t166 64q80 0 124 -44.5t44 -110.5q0 -85 -65 -148t-167 -63q-80 0 -124 44t-44 109zM717 1765q0 -41 21 -64.5t55 -23.5q46 0 81 36.5t35 92.5q0 38 -22 63 t-56 25q-47 0 -80.5 -36.5t-33.5 -92.5z" />
<glyph unicode="&#xc6;" horiz-adv-x="1654" d="M-109 0l897 1434h924l-37 -205h-569l-66 -379h439l-37 -203h-438l-78 -444h587l-36 -203h-822l64 360h-379l-225 -360h-224zM475 571h281l114 654z" />
<glyph unicode="&#xc7;" horiz-adv-x="1179" d="M92 584q0 186 64.5 350.5t173.5 279.5t256 181.5t309 66.5q98 0 194 -23t162 -61l-59 -204q-61 27 -99 42t-102 29.5t-125 14.5q-124 0 -226.5 -55t-168.5 -147.5t-102.5 -211t-36.5 -248.5q0 -196 85.5 -310t260.5 -114q56 0 123.5 14.5t110 28t118.5 41.5l-14 -205 q-78 -36 -182 -59t-197 -23q-252 0 -398.5 163t-146.5 450zM270 -395l179 272l169 14l-227 -272z" />
<glyph unicode="&#xc8;" horiz-adv-x="1081" d="M55 0l252 1434h832l-37 -203h-608l-68 -381h475l-35 -203h-475l-80 -444h627l-35 -203h-848zM559 1765l31 170l319 -190l-20 -109z" />
<glyph unicode="&#xc9;" horiz-adv-x="1081" d="M55 0l252 1434h832l-37 -203h-608l-68 -381h475l-35 -203h-475l-80 -444h627l-35 -203h-848zM539 1636l18 109l387 190l-31 -170z" />
<glyph unicode="&#xca;" horiz-adv-x="1081" d="M55 0l252 1434h832l-37 -203h-608l-68 -381h475l-35 -203h-475l-80 -444h627l-35 -203h-848zM436 1647l19 100l313 207l242 -207l-19 -100l-248 159z" />
<glyph unicode="&#xcb;" horiz-adv-x="1081" d="M55 0l252 1434h832l-37 -203h-608l-68 -381h475l-35 -203h-475l-80 -444h627l-35 -203h-848zM481 1649l39 209h162l-37 -209h-164zM786 1649l37 209h164l-37 -209h-164z" />
<glyph unicode="&#xcc;" horiz-adv-x="542" d="M55 0l252 1434h219l-252 -1434h-219zM301 1765l31 170l319 -190l-20 -109z" />
<glyph unicode="&#xcd;" horiz-adv-x="542" d="M55 0l252 1434h219l-252 -1434h-219zM279 1636l18 109l387 190l-31 -170z" />
<glyph unicode="&#xce;" horiz-adv-x="542" d="M55 0l252 1434h219l-252 -1434h-219zM178 1647l19 100l313 207l242 -207l-19 -100l-248 159z" />
<glyph unicode="&#xcf;" horiz-adv-x="542" d="M55 0l252 1434h219l-252 -1434h-219zM221 1649l39 209h162l-37 -209h-164zM526 1649l37 209h164l-37 -209h-164z" />
<glyph unicode="&#xd0;" horiz-adv-x="1413" d="M12 631l27 153h176l115 650h491q246 0 392.5 -154t146.5 -422q0 -192 -62.5 -354.5t-169.5 -272t-252 -170.5t-309 -61h-489l112 631h-178zM328 203h276q163 0 282 85.5t177.5 228.5t58.5 325t-86 285.5t-252 103.5h-274l-80 -447h238l-27 -153h-238z" />
<glyph unicode="&#xd1;" horiz-adv-x="1357" d="M55 0l252 1434h221l418 -1022l178 1022h219l-253 -1434h-181l-444 1081l-193 -1081h-217zM524 1675q30 95 104 145t150 50q33 0 66 -15t55 -33t49.5 -33t50.5 -15q41 0 77 28.5t57 73.5l108 -27q-30 -87 -97 -142.5t-151 -55.5q-39 0 -81.5 24.5t-80 49t-65.5 24.5 q-79 0 -125 -98z" />
<glyph unicode="&#xd2;" d="M92 582q0 149 41 285.5t115 243.5t172 186.5t218 122t247 42.5q251 0 395.5 -161.5t144.5 -448.5q0 -186 -64 -350.5t-171 -280.5t-252 -183t-303 -67q-252 0 -397.5 162t-145.5 449zM332 596q0 -193 84 -307.5t254 -114.5q116 0 214.5 55.5t163.5 148t101.5 212 t36.5 248.5q0 194 -84 308t-254 114q-116 0 -214.5 -55.5t-163.5 -148t-101.5 -212t-36.5 -248.5zM766 1765l31 170l319 -190l-20 -109z" />
<glyph unicode="&#xd3;" d="M92 582q0 149 41 285.5t115 243.5t172 186.5t218 122t247 42.5q251 0 395.5 -161.5t144.5 -448.5q0 -186 -64 -350.5t-171 -280.5t-252 -183t-303 -67q-252 0 -397.5 162t-145.5 449zM332 596q0 -193 84 -307.5t254 -114.5q116 0 214.5 55.5t163.5 148t101.5 212 t36.5 248.5q0 194 -84 308t-254 114q-116 0 -214.5 -55.5t-163.5 -148t-101.5 -212t-36.5 -248.5zM745 1636l19 109l387 190l-31 -170z" />
<glyph unicode="&#xd4;" d="M92 582q0 149 41 285.5t115 243.5t172 186.5t218 122t247 42.5q251 0 395.5 -161.5t144.5 -448.5q0 -186 -64 -350.5t-171 -280.5t-252 -183t-303 -67q-252 0 -397.5 162t-145.5 449zM332 596q0 -193 84 -307.5t254 -114.5q116 0 214.5 55.5t163.5 148t101.5 212 t36.5 248.5q0 194 -84 308t-254 114q-116 0 -214.5 -55.5t-163.5 -148t-101.5 -212t-36.5 -248.5zM645 1647l19 100l313 207l242 -207l-19 -100l-248 159z" />
<glyph unicode="&#xd5;" d="M92 582q0 149 41 285.5t115 243.5t172 186.5t218 122t247 42.5q251 0 395.5 -161.5t144.5 -448.5q0 -186 -64 -350.5t-171 -280.5t-252 -183t-303 -67q-252 0 -397.5 162t-145.5 449zM332 596q0 -193 84 -307.5t254 -114.5q116 0 214.5 55.5t163.5 148t101.5 212 t36.5 248.5q0 194 -84 308t-254 114q-116 0 -214.5 -55.5t-163.5 -148t-101.5 -212t-36.5 -248.5zM586 1675q30 95 104 145t150 50q33 0 66 -15t55 -33t49.5 -33t50.5 -15q41 0 76.5 28.5t56.5 73.5l109 -27q-30 -87 -97 -142.5t-151 -55.5q-39 0 -81.5 24.5t-80.5 49 t-66 24.5q-79 0 -125 -98z" />
<glyph unicode="&#xd6;" d="M92 582q0 149 41 285.5t115 243.5t172 186.5t218 122t247 42.5q251 0 395.5 -161.5t144.5 -448.5q0 -186 -64 -350.5t-171 -280.5t-252 -183t-303 -67q-252 0 -397.5 162t-145.5 449zM332 596q0 -193 84 -307.5t254 -114.5q116 0 214.5 55.5t163.5 148t101.5 212 t36.5 248.5q0 194 -84 308t-254 114q-116 0 -214.5 -55.5t-163.5 -148t-101.5 -212t-36.5 -248.5zM688 1649l39 209h162l-37 -209h-164zM993 1649l37 209h164l-37 -209h-164z" />
<glyph unicode="&#xd7;" horiz-adv-x="864" d="M72 328l256 239l-170 240l112 90l170 -240l256 240l80 -90l-256 -240l172 -239l-112 -90l-172 239l-254 -239z" />
<glyph unicode="&#xd8;" d="M10 -61l189 223q-107 162 -107 411q0 191 63.5 358t172 283t254.5 182t307 66q165 0 293 -80l65 84h223l-157 -190q112 -162 112 -418q0 -191 -63.5 -357t-171.5 -281t-254.5 -181t-308.5 -66q-169 0 -299 84l-92 -118h-226zM334 590q0 -123 28 -238l666 854 q-75 49 -174 49q-97 0 -181 -35.5t-145.5 -98t-105.5 -146t-66 -182t-22 -203.5zM481 229q79 -51 183 -51q97 0 181 36t145.5 99t105.5 148.5t66 186t22 208.5q0 154 -35 234z" />
<glyph unicode="&#xd9;" horiz-adv-x="1386" d="M131 424q0 78 19 186l145 824h217l-129 -732q-25 -143 -25 -221q2 -146 61 -226.5t199 -80.5q80 0 145 29t109 76.5t78 118.5t54 142.5t36 161.5l129 732h217l-145 -824q-54 -302 -220 -470.5t-437 -168.5q-226 0 -339.5 117.5t-113.5 335.5zM721 1765l31 170l319 -190 l-20 -109z" />
<glyph unicode="&#xda;" horiz-adv-x="1386" d="M131 424q0 78 19 186l145 824h217l-129 -732q-25 -143 -25 -221q2 -146 61 -226.5t199 -80.5q80 0 145 29t109 76.5t78 118.5t54 142.5t36 161.5l129 732h217l-145 -824q-54 -302 -220 -470.5t-437 -168.5q-226 0 -339.5 117.5t-113.5 335.5zM698 1636l19 109l387 190 l-31 -170z" />
<glyph unicode="&#xdb;" horiz-adv-x="1386" d="M131 424q0 78 19 186l145 824h217l-129 -732q-25 -143 -25 -221q2 -146 61 -226.5t199 -80.5q80 0 145 29t109 76.5t78 118.5t54 142.5t36 161.5l129 732h217l-145 -824q-54 -302 -220 -470.5t-437 -168.5q-226 0 -339.5 117.5t-113.5 335.5zM598 1647l18 100l314 207 l241 -207l-18 -100l-248 159z" />
<glyph unicode="&#xdc;" horiz-adv-x="1386" d="M131 424q0 78 19 186l145 824h217l-129 -732q-25 -143 -25 -221q2 -146 61 -226.5t199 -80.5q80 0 145 29t109 76.5t78 118.5t54 142.5t36 161.5l129 732h217l-145 -824q-54 -302 -220 -470.5t-437 -168.5q-226 0 -339.5 117.5t-113.5 335.5zM643 1649l39 209h162 l-37 -209h-164zM948 1649l37 209h164l-37 -209h-164z" />
<glyph unicode="&#xdd;" horiz-adv-x="1155" d="M154 1434h231l233 -588l433 588h229l-590 -781l-115 -653h-221l115 653zM586 1636l18 109l387 190l-30 -170z" />
<glyph unicode="&#xde;" horiz-adv-x="1091" d="M55 0l252 1434h221l-49 -281h103q105 0 179.5 -6.5t140 -24t105 -48t61.5 -79.5t22 -118q0 -252 -147.5 -357.5t-491.5 -105.5h-103l-72 -414h-221zM373 555h168q178 0 251.5 74t73.5 211q0 90 -57 129t-188 39h-166z" />
<glyph unicode="&#xdf;" horiz-adv-x="1075" d="M16 -279l203 1149h-135l45 154h117l24 131q21 111 93.5 200.5t164.5 135t183 45.5q53 0 105.5 -18.5t99 -53.5t75.5 -96t29 -137q0 -78 -26 -150t-62.5 -122t-73 -90t-62.5 -70t-26 -47q0 -16 21.5 -43t52 -61t61.5 -75t52.5 -100t21.5 -123q0 -97 -40 -172 t-108.5 -119.5t-153 -67t-179.5 -22.5q-31 0 -105 8l27 146q74 1 125.5 6t97 18.5t71.5 37.5t41 62t15 91q0 54 -21.5 104.5t-53 88.5t-62.5 71.5t-52.5 67t-21.5 61.5q0 26 20 56t49.5 57.5t64.5 66t64.5 78.5t49.5 98t20 121q0 85 -43 125.5t-104 40.5q-78 0 -134 -59.5 t-71 -149.5l-254 -1444h-205z" />
<glyph unicode="&#xe0;" horiz-adv-x="1134" d="M41 408q0 117 40.5 229t110.5 199.5t174.5 140.5t223.5 53q156 0 225 -106l35 86h188l-120 -707q-9 -49 -9 -78q0 -46 21 -62t78 -16l-54 -167q-63 0 -98 3.5t-69.5 17t-54.5 41.5t-34 75q-57 -63 -137.5 -100t-167.5 -37q-160 0 -256 120.5t-96 307.5zM258 426 q0 -121 50 -193.5t151 -72.5q134 0 220.5 119.5t86.5 298.5q0 135 -51.5 203.5t-145.5 68.5q-88 0 -160 -58.5t-111.5 -155.5t-39.5 -210zM596 1341l31 170l319 -190l-20 -109z" />
<glyph unicode="&#xe1;" horiz-adv-x="1134" d="M41 408q0 117 40.5 229t110.5 199.5t174.5 140.5t223.5 53q156 0 225 -106l35 86h188l-120 -707q-9 -49 -9 -78q0 -46 21 -62t78 -16l-54 -167q-63 0 -98 3.5t-69.5 17t-54.5 41.5t-34 75q-57 -63 -137.5 -100t-167.5 -37q-160 0 -256 120.5t-96 307.5zM258 426 q0 -121 50 -193.5t151 -72.5q134 0 220.5 119.5t86.5 298.5q0 135 -51.5 203.5t-145.5 68.5q-88 0 -160 -58.5t-111.5 -155.5t-39.5 -210zM575 1212l19 109l387 190l-31 -170z" />
<glyph unicode="&#xe2;" horiz-adv-x="1134" d="M41 408q0 117 40.5 229t110.5 199.5t174.5 140.5t223.5 53q156 0 225 -106l35 86h188l-120 -707q-9 -49 -9 -78q0 -46 21 -62t78 -16l-54 -167q-63 0 -98 3.5t-69.5 17t-54.5 41.5t-34 75q-57 -63 -137.5 -100t-167.5 -37q-160 0 -256 120.5t-96 307.5zM258 426 q0 -121 50 -193.5t151 -72.5q134 0 220.5 119.5t86.5 298.5q0 135 -51.5 203.5t-145.5 68.5q-88 0 -160 -58.5t-111.5 -155.5t-39.5 -210zM475 1223l19 100l313 207l242 -207l-19 -100l-248 159z" />
<glyph unicode="&#xe3;" horiz-adv-x="1134" d="M41 408q0 117 40.5 229t110.5 199.5t174.5 140.5t223.5 53q156 0 225 -106l35 86h188l-120 -707q-9 -49 -9 -78q0 -46 21 -62t78 -16l-54 -167q-63 0 -98 3.5t-69.5 17t-54.5 41.5t-34 75q-57 -63 -137.5 -100t-167.5 -37q-160 0 -256 120.5t-96 307.5zM258 426 q0 -121 50 -193.5t151 -72.5q134 0 220.5 119.5t86.5 298.5q0 135 -51.5 203.5t-145.5 68.5q-88 0 -160 -58.5t-111.5 -155.5t-39.5 -210zM408 1251q30 95 104 145t150 50q33 0 66 -15t55 -33t49.5 -33t50.5 -15q41 0 76.5 28.5t56.5 73.5l108 -27q-30 -87 -96.5 -142.5 t-150.5 -55.5q-39 0 -81.5 24.5t-80.5 49t-66 24.5q-79 0 -125 -98z" />
<glyph unicode="&#xe4;" horiz-adv-x="1134" d="M41 408q0 117 40.5 229t110.5 199.5t174.5 140.5t223.5 53q156 0 225 -106l35 86h188l-120 -707q-9 -49 -9 -78q0 -46 21 -62t78 -16l-54 -167q-63 0 -98 3.5t-69.5 17t-54.5 41.5t-34 75q-57 -63 -137.5 -100t-167.5 -37q-160 0 -256 120.5t-96 307.5zM258 426 q0 -121 50 -193.5t151 -72.5q134 0 220.5 119.5t86.5 298.5q0 135 -51.5 203.5t-145.5 68.5q-88 0 -160 -58.5t-111.5 -155.5t-39.5 -210zM518 1225l39 209h162l-37 -209h-164zM823 1225l37 209h164l-37 -209h-164z" />
<glyph unicode="&#xe5;" horiz-adv-x="1134" d="M41 408q0 117 40.5 229t110.5 199.5t174.5 140.5t223.5 53q156 0 225 -106l35 86h188l-120 -707q-9 -49 -9 -78q0 -46 21 -62t78 -16l-54 -167q-63 0 -98 3.5t-69.5 17t-54.5 41.5t-34 75q-57 -63 -137.5 -100t-167.5 -37q-160 0 -256 120.5t-96 307.5zM258 426 q0 -121 50 -193.5t151 -72.5q134 0 220.5 119.5t86.5 298.5q0 135 -51.5 203.5t-145.5 68.5q-88 0 -160 -58.5t-111.5 -155.5t-39.5 -210zM578 1333q0 85 65.5 149t165.5 64q80 0 124 -44.5t44 -110.5q0 -85 -65 -148t-167 -63q-80 0 -123.5 44t-43.5 109zM682 1341 q0 -41 21 -64.5t55 -23.5q46 0 81 36.5t35 92.5q0 38 -21.5 63t-55.5 25q-47 0 -81 -36.5t-34 -92.5z" />
<glyph unicode="&#xe6;" horiz-adv-x="1521" d="M-16 197q0 74 23 135.5t60.5 104.5t91 77t107.5 54.5t118 35t115 20.5t105 9q0 120 -30 166.5t-123 46.5q-114 0 -261 -66l11 166q182 84 338 84q242 0 249 -225q49 110 151.5 167.5t225.5 57.5q140 0 221.5 -88.5t81.5 -245.5q0 -98 -43 -211h-610q-6 -35 -6 -63 q0 -134 64.5 -204.5t166.5 -70.5q128 0 291 80l-10 -168q-162 -79 -326 -79q-285 0 -340 217q-161 -226 -415 -226q-125 0 -190.5 60.5t-65.5 165.5zM207 242q0 -50 30 -75.5t78 -25.5q46 0 91 20t85 60t67.5 110.5t33.5 160.5q-63 -1 -126 -14.5t-123.5 -41.5t-98 -78.5 t-37.5 -115.5zM850 629h422q6 27 6 73q0 71 -38 109.5t-114 38.5q-91 0 -164 -56.5t-112 -164.5z" />
<glyph unicode="&#xe7;" horiz-adv-x="866" d="M43 410q0 121 37.5 231.5t108 198t181.5 139t248 51.5q167 0 259 -65l-56 -185q-106 70 -223 70q-107 0 -185.5 -57.5t-116.5 -151.5t-38 -211q0 -272 221 -272q120 0 246 69l-8 -172q-121 -75 -281 -75q-104 0 -181 33t-122.5 92.5t-67.5 135.5t-22 169zM170 -395 l178 272l170 14l-227 -272z" />
<glyph unicode="&#xe8;" horiz-adv-x="960" d="M41 416q0 118 40.5 229t112 196.5t177 137t227.5 51.5q149 0 230 -73.5t81 -196.5q0 -148 -120.5 -243t-352.5 -95q-100 0 -172 16q3 -278 252 -278q66 0 146.5 18t144.5 49l-14 -170q-162 -77 -326 -77q-209 0 -317.5 121.5t-108.5 314.5zM285 578q10 -2 30 -7 t41.5 -7.5t53.5 -2.5q89 0 153.5 16t98 43.5t48.5 57.5t15 63q0 58 -41.5 83.5t-99.5 25.5q-102 0 -180 -73.5t-119 -198.5zM451 1341l30 170l320 -190l-21 -109z" />
<glyph unicode="&#xe9;" horiz-adv-x="960" d="M41 416q0 118 40.5 229t112 196.5t177 137t227.5 51.5q149 0 230 -73.5t81 -196.5q0 -148 -120.5 -243t-352.5 -95q-100 0 -172 16q3 -278 252 -278q66 0 146.5 18t144.5 49l-14 -170q-162 -77 -326 -77q-209 0 -317.5 121.5t-108.5 314.5zM285 578q10 -2 30 -7 t41.5 -7.5t53.5 -2.5q89 0 153.5 16t98 43.5t48.5 57.5t15 63q0 58 -41.5 83.5t-99.5 25.5q-102 0 -180 -73.5t-119 -198.5zM430 1212l19 109l387 190l-31 -170z" />
<glyph unicode="&#xea;" horiz-adv-x="960" d="M41 416q0 118 40.5 229t112 196.5t177 137t227.5 51.5q149 0 230 -73.5t81 -196.5q0 -148 -120.5 -243t-352.5 -95q-100 0 -172 16q3 -278 252 -278q66 0 146.5 18t144.5 49l-14 -170q-162 -77 -326 -77q-209 0 -317.5 121.5t-108.5 314.5zM285 578q10 -2 30 -7 t41.5 -7.5t53.5 -2.5q89 0 153.5 16t98 43.5t48.5 57.5t15 63q0 58 -41.5 83.5t-99.5 25.5q-102 0 -180 -73.5t-119 -198.5zM328 1223l18 100l313 207l242 -207l-18 -100l-248 159z" />
<glyph unicode="&#xeb;" horiz-adv-x="960" d="M41 416q0 118 40.5 229t112 196.5t177 137t227.5 51.5q149 0 230 -73.5t81 -196.5q0 -148 -120.5 -243t-352.5 -95q-100 0 -172 16q3 -278 252 -278q66 0 146.5 18t144.5 49l-14 -170q-162 -77 -326 -77q-209 0 -317.5 121.5t-108.5 314.5zM285 578q10 -2 30 -7 t41.5 -7.5t53.5 -2.5q89 0 153.5 16t98 43.5t48.5 57.5t15 63q0 58 -41.5 83.5t-99.5 25.5q-102 0 -180 -73.5t-119 -198.5zM371 1225l39 209h161l-36 -209h-164zM676 1225l37 209h164l-37 -209h-164z" />
<glyph unicode="&#xec;" horiz-adv-x="456" d="M18 0l177 1010h211l-179 -1010h-209zM182 1341l31 170l319 -190l-20 -109z" />
<glyph unicode="&#xed;" horiz-adv-x="456" d="M18 0l177 1010h211l-179 -1010h-209zM160 1212l18 109l387 190l-30 -170z" />
<glyph unicode="&#xee;" horiz-adv-x="456" d="M18 0l177 1010h211l-179 -1010h-209zM59 1223l19 100l313 207l242 -207l-19 -100l-247 159z" />
<glyph unicode="&#xef;" horiz-adv-x="456" d="M18 0l177 1010h211l-179 -1010h-209zM102 1225l39 209h162l-37 -209h-164zM408 1225l36 209h164l-37 -209h-163z" />
<glyph unicode="&#xf0;" horiz-adv-x="999" d="M10 342q0 69 21 142.5t63 143t99 124t136.5 87.5t168.5 33q128 0 215 -100q0 100 -18.5 208t-59.5 150q-143 -104 -283 -122l-45 125q124 15 250 102q-89 106 -205 106l86 95q140 0 260 -111q86 77 129 129l107 -27q-82 -98 -162 -178q66 -91 104.5 -241.5t38.5 -309.5 q0 -120 -19 -221.5t-50.5 -174.5t-76 -131t-93 -94t-104 -59.5t-106 -33t-101.5 -9.5q-159 0 -257 102.5t-98 264.5zM225 377q0 -95 45 -157t131 -62q104 0 185.5 92t81.5 235q0 96 -45 151.5t-131 55.5q-117 0 -192 -95.5t-75 -219.5z" />
<glyph unicode="&#xf1;" horiz-adv-x="1069" d="M16 0l179 1010h180v-90q66 61 131.5 85.5t144.5 24.5q310 0 310 -330q0 -38 -18.5 -158t-92.5 -542h-211q109 617 109 672q0 92 -38.5 135t-123.5 43q-147 0 -230 -117l-129 -733h-211zM305 1251q30 95 104 145t150 50q33 0 66 -15t55 -33t49.5 -33t50.5 -15 q41 0 76.5 28.5t56.5 73.5l109 -27q-30 -87 -97 -142.5t-151 -55.5q-39 0 -81.5 24.5t-80 49t-65.5 24.5q-79 0 -125 -98z" />
<glyph unicode="&#xf2;" horiz-adv-x="1079" d="M41 410q0 163 71.5 304.5t203 228.5t292.5 87q129 0 220 -58.5t133.5 -154t42.5 -219.5q0 -121 -43 -234t-117 -197.5t-180.5 -135.5t-227.5 -51q-192 0 -293.5 120t-101.5 310zM256 426q0 -130 52.5 -198t156.5 -68q144 0 232.5 122t88.5 302q0 266 -206 266 q-144 0 -234 -122.5t-90 -301.5zM492 1341l30 170l320 -190l-21 -109z" />
<glyph unicode="&#xf3;" horiz-adv-x="1079" d="M41 410q0 163 71.5 304.5t203 228.5t292.5 87q129 0 220 -58.5t133.5 -154t42.5 -219.5q0 -121 -43 -234t-117 -197.5t-180.5 -135.5t-227.5 -51q-192 0 -293.5 120t-101.5 310zM256 426q0 -130 52.5 -198t156.5 -68q144 0 232.5 122t88.5 302q0 266 -206 266 q-144 0 -234 -122.5t-90 -301.5zM469 1212l18 109l387 190l-30 -170z" />
<glyph unicode="&#xf4;" horiz-adv-x="1079" d="M41 410q0 163 71.5 304.5t203 228.5t292.5 87q129 0 220 -58.5t133.5 -154t42.5 -219.5q0 -121 -43 -234t-117 -197.5t-180.5 -135.5t-227.5 -51q-192 0 -293.5 120t-101.5 310zM256 426q0 -130 52.5 -198t156.5 -68q144 0 232.5 122t88.5 302q0 266 -206 266 q-144 0 -234 -122.5t-90 -301.5zM371 1223l18 100l313 207l242 -207l-18 -100l-248 159z" />
<glyph unicode="&#xf5;" horiz-adv-x="1079" d="M41 410q0 163 71.5 304.5t203 228.5t292.5 87q129 0 220 -58.5t133.5 -154t42.5 -219.5q0 -121 -43 -234t-117 -197.5t-180.5 -135.5t-227.5 -51q-192 0 -293.5 120t-101.5 310zM256 426q0 -130 52.5 -198t156.5 -68q144 0 232.5 122t88.5 302q0 266 -206 266 q-144 0 -234 -122.5t-90 -301.5zM309 1251q30 95 104 145t150 50q33 0 66 -15t55 -33t49.5 -33t50.5 -15q41 0 77 28.5t57 73.5l108 -27q-30 -87 -97 -142.5t-151 -55.5q-39 0 -81.5 24.5t-80 49t-65.5 24.5q-79 0 -125 -98z" />
<glyph unicode="&#xf6;" horiz-adv-x="1079" d="M41 410q0 163 71.5 304.5t203 228.5t292.5 87q129 0 220 -58.5t133.5 -154t42.5 -219.5q0 -121 -43 -234t-117 -197.5t-180.5 -135.5t-227.5 -51q-192 0 -293.5 120t-101.5 310zM256 426q0 -130 52.5 -198t156.5 -68q144 0 232.5 122t88.5 302q0 266 -206 266 q-144 0 -234 -122.5t-90 -301.5zM414 1225l39 209h161l-36 -209h-164zM719 1225l37 209h164l-37 -209h-164z" />
<glyph unicode="&#xf7;" horiz-adv-x="1126" d="M106 492l29 165h869l-29 -165h-869zM348 41l39 217h209l-39 -217h-209zM496 877l39 217h208l-38 -217h-209z" />
<glyph unicode="&#xf8;" horiz-adv-x="1089" d="M43 414q0 122 43 235t117.5 199t184.5 138t235 52q71 0 133 -22l47 78h180l-92 -142q62 -63 94.5 -155.5t32.5 -194.5q0 -121 -42.5 -233.5t-117 -198t-184.5 -137t-236 -51.5q-71 0 -141 20l-45 -74h-174l88 142q-60 60 -91.5 151.5t-31.5 192.5zM260 424q0 -80 23 -184 l370 620q-40 12 -61 12q-144 0 -238 -132.5t-94 -315.5zM401 158q45 -11 66 -11q97 0 174 63.5t118.5 170.5t41.5 237q0 116 -27 162z" />
<glyph unicode="&#xf9;" horiz-adv-x="1042" d="M70 293q0 73 114 717h209q-108 -623 -108 -666q0 -184 157 -184q125 0 207 104l133 746h209l-178 -1010h-192l6 94q-60 -60 -119 -87t-143 -27q-145 0 -220 79.5t-75 233.5zM485 1341l31 170l320 -190l-21 -109z" />
<glyph unicode="&#xfa;" horiz-adv-x="1042" d="M70 293q0 73 114 717h209q-108 -623 -108 -666q0 -184 157 -184q125 0 207 104l133 746h209l-178 -1010h-192l6 94q-60 -60 -119 -87t-143 -27q-145 0 -220 79.5t-75 233.5zM463 1212l18 109l387 190l-30 -170z" />
<glyph unicode="&#xfb;" horiz-adv-x="1042" d="M70 293q0 73 114 717h209q-108 -623 -108 -666q0 -184 157 -184q125 0 207 104l133 746h209l-178 -1010h-192l6 94q-60 -60 -119 -87t-143 -27q-145 0 -220 79.5t-75 233.5zM362 1223l19 100l313 207l242 -207l-18 -100l-248 159z" />
<glyph unicode="&#xfc;" horiz-adv-x="1042" d="M70 293q0 73 114 717h209q-108 -623 -108 -666q0 -184 157 -184q125 0 207 104l133 746h209l-178 -1010h-192l6 94q-60 -60 -119 -87t-143 -27q-145 0 -220 79.5t-75 233.5zM408 1225l38 209h162l-37 -209h-163zM713 1225l37 209h163l-36 -209h-164z" />
<glyph unicode="&#xfd;" horiz-adv-x="983" d="M-20 -496l307 549l-221 957h233l133 -715l377 715h233l-845 -1506h-217zM414 1212l18 109l387 190l-31 -170z" />
<glyph unicode="&#xfe;" horiz-adv-x="1112" d="M-70 -494l359 2030h209l-107 -612q118 106 268 106q181 0 279 -121t98 -305q0 -121 -40.5 -233.5t-112 -199.5t-179.5 -139t-235 -52q-151 0 -225 112l-105 -586h-209zM293 406q0 -117 46.5 -188t143.5 -71q100 0 178.5 61t119 160t40.5 218q0 121 -55.5 192.5 t-157.5 71.5q-80 0 -142.5 -37.5t-99 -101.5t-55 -141t-18.5 -164z" />
<glyph unicode="&#xff;" horiz-adv-x="983" d="M-20 -496l307 549l-221 957h233l133 -715l377 715h233l-845 -1506h-217zM354 1225l39 209h162l-37 -209h-164zM659 1225l37 209h164l-37 -209h-164z" />
<glyph unicode="&#x152;" horiz-adv-x="2033" d="M92 571q0 192 63.5 359.5t171 283t253.5 182t307 66.5q118 0 213.5 -42.5t177.5 -135.5l29 148h784l-35 -201h-567l-68 -381h437l-35 -203h-437l-79 -444h585l-37 -203h-802l26 150q-223 -179 -456 -179q-242 0 -386.5 163t-144.5 437zM330 588q0 -123 34 -214 t109 -145.5t184 -54.5q121 0 221 55t164.5 148.5t100 214t35.5 254.5q0 188 -83.5 301t-244.5 113q-98 0 -182 -36t-145.5 -99t-105.5 -147.5t-65.5 -183.5t-21.5 -206z" />
<glyph unicode="&#x153;" horiz-adv-x="1714" d="M41 412q0 166 70.5 306.5t203.5 226t301 85.5q114 0 201 -49.5t123 -142.5q72 93 171 142.5t206 49.5q157 0 250.5 -93.5t93.5 -254.5q0 -31 -2.5 -56.5t-8 -47t-9.5 -33.5t-12 -32t-11 -28h-623q-6 -41 -6 -71q0 -62 14 -110t36.5 -77t54 -47.5t63 -25.5t66.5 -7 q70 0 154.5 22.5t150.5 57.5l-17 -178q-145 -69 -317 -69q-286 0 -365 200q-71 -96 -176 -148t-223 -52q-185 0 -287 122t-102 310zM254 418q0 -121 54 -189.5t155 -68.5q148 0 238 126t90 302q0 119 -53 190.5t-152 71.5q-152 0 -242 -121t-90 -311zM1024 629h418 q6 48 6 53q0 76 -39.5 122t-120.5 46q-186 0 -264 -221z" />
<glyph unicode="&#x178;" horiz-adv-x="1155" d="M154 1434h231l233 -588l433 588h229l-590 -781l-115 -653h-221l115 653zM530 1649l39 209h162l-37 -209h-164zM836 1649l36 209h164l-37 -209h-163z" />
<glyph unicode="&#x2c6;" horiz-adv-x="841" d="M358 1223l19 100l313 207l242 -207l-19 -100l-247 159z" />
<glyph unicode="&#x2dc;" horiz-adv-x="997" d="M377 1251q30 95 104 145t150 50q33 0 66 -15t55 -33t49.5 -33t50.5 -15q41 0 76.5 28.5t56.5 73.5l109 -27q-30 -87 -97 -142.5t-151 -55.5q-39 0 -81.5 24.5t-80.5 49t-66 24.5q-78 0 -124 -98z" />
<glyph unicode="&#x2000;" horiz-adv-x="985" />
<glyph unicode="&#x2001;" horiz-adv-x="1970" />
<glyph unicode="&#x2002;" horiz-adv-x="985" />
<glyph unicode="&#x2003;" horiz-adv-x="1970" />
<glyph unicode="&#x2004;" horiz-adv-x="656" />
<glyph unicode="&#x2005;" horiz-adv-x="492" />
<glyph unicode="&#x2006;" horiz-adv-x="328" />
<glyph unicode="&#x2007;" horiz-adv-x="328" />
<glyph unicode="&#x2008;" horiz-adv-x="246" />
<glyph unicode="&#x2009;" horiz-adv-x="394" />
<glyph unicode="&#x200a;" horiz-adv-x="109" />
<glyph unicode="&#x2010;" horiz-adv-x="819" d="M96 481l31 183h586l-33 -183h-584z" />
<glyph unicode="&#x2011;" horiz-adv-x="819" d="M96 481l31 183h586l-33 -183h-584z" />
<glyph unicode="&#x2012;" horiz-adv-x="819" d="M96 481l31 183h586l-33 -183h-584z" />
<glyph unicode="&#x2013;" horiz-adv-x="968" d="M96 481l31 183h731l-31 -183h-731z" />
<glyph unicode="&#x2014;" horiz-adv-x="1142" d="M96 481l31 183h905l-31 -183h-905z" />
<glyph unicode="&#x2018;" horiz-adv-x="399" d="M178 1106l37 207l211 223l41 -27l-94 -178l59 -18l-37 -207h-217z" />
<glyph unicode="&#x2019;" horiz-adv-x="364" d="M178 1133l96 178l-59 18l37 207h215l-37 -207l-209 -223z" />
<glyph unicode="&#x201a;" horiz-adv-x="452" d="M-23 -197l95 179l-58 18l35 207h217l-37 -207l-211 -223z" />
<glyph unicode="&#x201c;" horiz-adv-x="794" d="M178 1106l37 207l211 223l41 -27l-94 -178l59 -18l-37 -207h-217zM575 1106l35 207l211 223l43 -27l-96 -178l59 -18l-36 -207h-216z" />
<glyph unicode="&#x201d;" horiz-adv-x="759" d="M178 1133l96 178l-59 18l37 207h215l-37 -207l-209 -223zM575 1133l95 178l-60 18l37 207h217l-39 -207l-209 -223z" />
<glyph unicode="&#x201e;" horiz-adv-x="888" d="M-23 -197l95 179l-58 18l35 207h217l-37 -207l-211 -223zM412 -197l94 179l-60 18l37 207h217l-38 -207l-209 -223z" />
<glyph unicode="&#x2022;" horiz-adv-x="595" d="M82 535q0 103 76.5 180.5t171.5 77.5q74 0 123 -55t49 -134q0 -103 -77.5 -180.5t-172.5 -77.5q-74 0 -122 55t-48 134z" />
<glyph unicode="&#x2026;" horiz-adv-x="1335" d="M12 0l37 207h209l-37 -207h-209zM457 0l37 207h208l-36 -207h-209zM903 0l35 207h211l-37 -207h-209z" />
<glyph unicode="&#x202f;" horiz-adv-x="394" />
<glyph unicode="&#x2039;" horiz-adv-x="657" d="M31 582l364 422h250l-364 -422l217 -422h-250z" />
<glyph unicode="&#x203a;" horiz-adv-x="659" d="M4 160l365 422l-215 422h249l218 -422l-367 -422h-250z" />
<glyph unicode="&#x205f;" horiz-adv-x="492" />
<glyph unicode="&#x20ac;" horiz-adv-x="1341" d="M37 436l78 154h180q2 49 14 127l8 43h-167l73 141h139q92 232 271.5 365t396.5 133q197 0 326 -72l-64 -211q-79 39 -147 58.5t-152 19.5q-260 0 -391 -293h477l-75 -141h-451l-6 -43q-15 -81 -15 -127h455l-78 -154h-356q60 -196 272 -196q145 0 326 77l-12 -211 q-148 -71 -351 -71q-191 0 -318.5 105.5t-164.5 295.5h-268z" />
<glyph unicode="&#x2122;" horiz-adv-x="1406" d="M188 1311l23 123h514l-37 -123h-182l-111 -621h-129l109 621h-187zM596 690l223 744h78l121 -344l242 344h79l-39 -744h-135l37 510l-211 -305h-16l-101 305l-145 -510h-133z" />
<glyph unicode="&#x25fc;" horiz-adv-x="1013" d="M0 0v1014h1014v-1014h-1014z" />
</font>
</defs>
</svg>
