<?xml version="1.0" standalone="no"?>
<!DOCTYPE svg PUBLIC "-//W3C//DTD SVG 1.1//EN" "http://www.w3.org/Graphics/SVG/1.1/DTD/svg11.dtd" >
<svg xmlns="http://www.w3.org/2000/svg">
<metadata></metadata>
<defs>
<font id="cabinsemibold" horiz-adv-x="1277" >
<font-face units-per-em="2048" ascent="1638" descent="-410" />
<missing-glyph horiz-adv-x="460" />
<glyph horiz-adv-x="2048" />
<glyph horiz-adv-x="2048" />
<glyph unicode="&#xd;" horiz-adv-x="2048" />
<glyph unicode=" "  horiz-adv-x="460" />
<glyph unicode="&#x09;" horiz-adv-x="460" />
<glyph unicode="&#xa0;" horiz-adv-x="460" />
<glyph unicode="!" horiz-adv-x="507" d="M127 1536h254l-47 -1126h-160zM139 0v229h230v-229h-230z" />
<glyph unicode="&#x22;" horiz-adv-x="817" d="M78 1536h235l-41 -614h-153zM506 1536h233l-41 -614h-151z" />
<glyph unicode="#" horiz-adv-x="1441" d="M61 436l91 205h231l80 211h-250l63 192h261l151 390h184l-149 -390h246l149 390h182l-147 -390h227l-65 -192h-236l-80 -211h258l-94 -205h-243l-172 -459h-189l174 459h-241l-177 -459h-184l174 459h-244zM567 641h246l82 211h-244z" />
<glyph unicode="$" horiz-adv-x="1064" d="M82 971q0 54 19.5 104t60.5 97t117.5 79.5t179.5 42.5l-33 238h207l-33 -238q99 -6 191 -28.5t137 -48.5l-21 -222q-212 105 -350 105q-235 0 -235 -105q0 -37 29 -65t76 -44.5t107.5 -35t123 -35t123 -45t107.5 -63.5t76 -93t29 -131q0 -39 -8 -75t-34 -77.5t-67 -73.5 t-114.5 -57.5t-169.5 -33.5l33 -232h-207l33 230q-116 6 -212.5 28.5t-146.5 51.5l31 248q60 -53 160 -89t223 -36q106 0 160.5 26t54.5 88q0 39 -28 70.5t-73.5 51t-103.5 40t-118.5 37.5t-118.5 43t-103.5 57t-73.5 80t-28 111z" />
<glyph unicode="%" horiz-adv-x="1720" d="M68 1057q0 175 90 280t225 105q133 0 219 -100t86 -269q0 -178 -87 -283.5t-228 -105.5q-136 0 -220.5 101.5t-84.5 271.5zM217 1057q0 -115 44 -174.5t114 -59.5q74 0 120 63t46 187q0 112 -47 174t-113 62q-68 0 -116 -66.5t-48 -185.5zM309 -25l862 1459h195 l-862 -1459h-195zM1030 352q0 176 91 281.5t227 105.5q134 0 219.5 -100.5t85.5 -269.5q0 -178 -87 -283.5t-229 -105.5q-138 0 -222.5 101t-84.5 271zM1176 352q0 -118 43.5 -177.5t117.5 -59.5q78 0 123 63t45 191q0 114 -46.5 175.5t-115.5 61.5q-71 0 -119 -65.5 t-48 -188.5z" />
<glyph unicode="&#x26;" horiz-adv-x="1271" d="M68 340q0 125 65 223.5t186 188.5q-153 191 -153 348q0 104 58 182.5t151 118t203 39.5q151 0 233 -77.5t82 -205.5q0 -54 -18 -104.5t-44.5 -88.5t-70.5 -79.5t-80.5 -69.5t-91.5 -65l317 -351q36 98 41 322h219q-5 -299 -110 -488l202 -233h-262l-71 78 q-151 -127 -379 -127q-122 0 -215.5 31.5t-149.5 86.5t-84 123.5t-28 147.5zM305 360q0 -47 13 -86t42 -73t82.5 -53t126.5 -19q152 0 238 86l-377 408q-125 -115 -125 -263zM389 1092q0 -99 100 -224q105 77 153 132t48 126q0 129 -129 129q-75 0 -123.5 -42t-48.5 -121z " />
<glyph unicode="'" horiz-adv-x="397" d="M80 1536h237l-38 -614h-160z" />
<glyph unicode="(" horiz-adv-x="557" d="M84 629q0 306 54.5 516t162.5 391h209q-238 -409 -238 -907q0 -499 238 -908h-209q-108 181 -162.5 391.5t-54.5 516.5z" />
<glyph unicode=")" horiz-adv-x="557" d="M47 -279q238 409 238 908q0 498 -238 907h209q108 -181 162.5 -391t54.5 -516t-54.5 -516.5t-162.5 -391.5h-209z" />
<glyph unicode="*" horiz-adv-x="903" d="M68 1278l79 141l283 -207l-57 322h162l-62 -322l285 207l80 -143l-324 -111l240 -200l-115 -111l-184 276l-185 -282l-114 110l239 203z" />
<glyph unicode="+" horiz-adv-x="946" d="M94 475v189h287v262h184v-262h287v-189h-287v-266h-184v266h-287z" />
<glyph unicode="," horiz-adv-x="464" d="M113 0v238h239v-238l-188 -225l-51 28l67 177z" />
<glyph unicode="-" horiz-adv-x="860" d="M113 475v189h635v-189h-635z" />
<glyph unicode="." horiz-adv-x="458" d="M113 0v238h233v-238h-233z" />
<glyph unicode="/" horiz-adv-x="1114" d="M37 -174l756 1608h254l-756 -1608h-254z" />
<glyph unicode="0" horiz-adv-x="1449" d="M123 694q0 168 47.5 312t130 243.5t195.5 156t241 56.5q168 0 302 -92t211 -260t77 -381q0 -342 -168.5 -550t-445.5 -208q-265 0 -427.5 198.5t-162.5 524.5zM369 694q0 -252 95 -379t253 -127q168 0 268 134t100 407q0 248 -101.5 383t-250.5 135q-71 0 -135.5 -34.5 t-116 -100.5t-82 -174t-30.5 -244z" />
<glyph unicode="1" horiz-adv-x="747" d="M86 1210q73 19 157.5 86t118.5 138h185v-1434h-246v1092q-96 -71 -190 -91z" />
<glyph unicode="2" horiz-adv-x="1083" d="M98 0q192 276 315.5 469t178.5 303.5t72.5 166.5t17.5 103q0 101 -57.5 157t-157.5 56q-188 0 -330 -211l-31 218q12 21 33.5 44.5t59 52t82 51t108 37.5t131.5 15q87 0 156 -24t112.5 -62t72.5 -90t40.5 -104t11.5 -107q0 -141 -91 -336.5t-304 -509.5h449v-229h-869z " />
<glyph unicode="3" horiz-adv-x="1112" d="M78 82l59 221q61 -46 146 -75t174 -29q57 0 105.5 11.5t90.5 37t66 73.5t24 113q0 54 -12 95.5t-41.5 79t-88 57.5t-144.5 20h-174l22 188h88q295 0 295 203q0 178 -221 178q-80 0 -150 -19.5t-110 -53.5l-39 186q35 35 123.5 64.5t202.5 29.5q105 0 186 -25t128.5 -63 t77.5 -90.5t40 -100t10 -98.5q0 -181 -152 -290q203 -101 203 -353q0 -92 -29 -170t-78.5 -133t-116.5 -93.5t-142.5 -56.5t-155.5 -18q-125 0 -242.5 39.5t-144.5 71.5z" />
<glyph unicode="4" horiz-adv-x="1179" d="M25 389l659 1045h203v-844h174v-201h-174v-389h-246v389h-616zM365 590h276v459z" />
<glyph unicode="5" horiz-adv-x="1105" d="M102 76l58 221q59 -44 140 -72t163 -28q59 0 111.5 16.5t94.5 48.5t66.5 85t24.5 120q0 53 -17 92t-58 71t-116.5 48t-185.5 16h-205l88 740h656l-23 -230h-448l-37 -305q309 -3 447 -103.5t138 -318.5q0 -119 -44.5 -216.5t-119.5 -159t-169 -95t-197 -33.5 q-116 0 -234.5 37.5t-132.5 65.5z" />
<glyph unicode="6" horiz-adv-x="1157" d="M123 510q0 129 31 254t82.5 224t116.5 184t133.5 141.5t133.5 88t117 32.5l160 -95q-45 -9 -105 -41.5t-125 -87t-123 -121.5t-102 -152t-59 -171q73 96 254 96q122 0 218 -44t155 -139t59 -230q0 -130 -60 -238t-175.5 -174t-264.5 -66q-96 0 -174.5 29.5t-140.5 91.5 t-96.5 168.5t-34.5 249.5zM362 414q0 -109 71 -169.5t163 -60.5q112 0 179 78.5t67 186.5q0 83 -56 149t-168 66q-111 0 -183.5 -66t-72.5 -184z" />
<glyph unicode="7" horiz-adv-x="1042" d="M86 1204v230h938l-606 -1434h-252l508 1204h-588z" />
<glyph unicode="8" horiz-adv-x="1236" d="M117 381q0 235 237 391q-155 122 -155 330q0 73 21.5 134t68.5 113.5t133.5 82.5t204.5 30q113 0 196 -27t129.5 -75t68 -104.5t21.5 -122.5q0 -104 -47 -183.5t-149 -158.5q130 -54 202 -150t72 -227q0 -62 -18.5 -123.5t-60 -119.5t-100.5 -102t-147 -71t-194 -27 q-123 0 -218.5 35t-151.5 94t-84.5 130t-28.5 151zM354 395q0 -108 67 -166.5t187 -58.5q124 0 197.5 66t73.5 174q0 107 -72 177t-182 97q-115 -20 -193 -94.5t-78 -194.5zM412 1081q0 -69 46.5 -126t147.5 -87q109 30 159 90.5t50 137.5q0 76 -49.5 123t-149.5 47 q-102 0 -153 -51t-51 -134z" />
<glyph unicode="9" horiz-adv-x="1159" d="M88 981q0 133 60 241.5t175.5 174t264.5 65.5q95 0 173.5 -29t141.5 -90t98 -167.5t35 -249.5q0 -159 -40 -307.5t-105 -258t-145.5 -192.5t-163.5 -125.5t-156 -42.5l-162 94q48 9 109.5 39t130 82.5t127.5 117.5t101 151.5t50 177.5q-37 -44 -120.5 -67.5t-141.5 -23.5 q-198 0 -315 105t-117 305zM326 991q0 -41 11.5 -78t35 -70t67.5 -53t103 -20q111 0 184.5 66t73.5 184q0 117 -69 173t-163 56q-113 0 -178 -77.5t-65 -180.5z" />
<glyph unicode=":" horiz-adv-x="458" d="M113 0v238h233v-238h-233zM113 664v237h233v-237h-233z" />
<glyph unicode=";" horiz-adv-x="487" d="M117 0v238h239v-238l-188 -225l-51 28l67 177zM117 664v237h258v-237h-258z" />
<glyph unicode="&#x3c;" horiz-adv-x="882" d="M59 582l437 422h268l-436 -422l436 -422h-268z" />
<glyph unicode="=" horiz-adv-x="1019" d="M131 313v183h758v-183h-758zM131 639v182h758v-182h-758z" />
<glyph unicode="&#x3e;" horiz-adv-x="884" d="M121 160l436 422l-436 422h268l436 -422l-436 -422h-268z" />
<glyph unicode="?" horiz-adv-x="905" d="M61 1393q45 69 133.5 106t194.5 37q83 0 154.5 -24.5t120.5 -64t84.5 -90.5t52 -104t16.5 -104q0 -69 -34 -142.5t-82 -138.5t-96 -130.5t-82 -142.5t-34 -151v-34h-155q-6 80 -6 104q0 70 28 139.5t68 126.5l80 114t68 122.5t28 130.5q0 102 -64 155.5t-161 53.5 q-86 0 -154 -39.5t-104 -95.5zM297 0v229h231v-229h-231z" />
<glyph unicode="@" horiz-adv-x="1468" d="M94 348q0 131 40 252.5t112.5 217t168.5 167t212 110t239 38.5q239 0 374.5 -140.5t135.5 -380.5q0 -150 -51 -286q-39 -61 -116 -97t-136 -36q-76 0 -76 108q0 50 15.5 114.5t46.5 171t51 189.5q-105 109 -250 109q-124 0 -245.5 -84t-198 -218.5t-76.5 -273.5 q0 -98 46.5 -162.5t148.5 -64.5q88 0 194 65t166 172q0 -5 -3 -31t-3 -32q0 -66 27 -118t85 -52q60 0 141.5 39.5t131.5 91.5q-98 -178 -279.5 -286.5t-392.5 -108.5q-235 0 -371.5 139.5t-136.5 386.5zM504 348q0 82 37 161t92 132.5t117 86t112 32.5q95 0 111 -45 q-19 -107 -83.5 -224t-147 -195.5t-148.5 -78.5q-45 0 -67.5 37t-22.5 94z" />
<glyph unicode="A" d="M10 0l510 1434h236l512 -1434h-252l-127 358h-500l-127 -358h-252zM469 588h338l-170 477z" />
<glyph unicode="B" horiz-adv-x="1263" d="M160 0v1434h366q108 0 185.5 -8t149.5 -30.5t116 -62.5t70 -106t26 -158q0 -100 -26.5 -171.5t-94.5 -131.5q131 -51 189.5 -132t58.5 -210q0 -99 -30.5 -175.5t-79 -122.5t-117 -75.5t-136 -40t-145.5 -10.5h-532zM399 209h242q154 0 231.5 47.5t77.5 171.5 q0 65 -20 110.5t-58 70t-84 35.5t-106 11h-283v-446zM399 852h252q38 0 68 7t60 25t46.5 57t16.5 97q0 111 -56.5 149t-169.5 38h-217v-373z" />
<glyph unicode="C" horiz-adv-x="1255" d="M76 717q0 223 91.5 393t252.5 261t366 91q108 0 217 -23t187 -61l-27 -227q-76 28 -120.5 42.5t-116 28t-140.5 13.5q-214 0 -330 -143.5t-116 -374.5t116 -374.5t330 -143.5q100 0 184.5 21.5t192.5 62.5l27 -228q-79 -39 -187 -61.5t-217 -22.5q-153 0 -284.5 53.5 t-225.5 149.5t-147 236t-53 307z" />
<glyph unicode="D" horiz-adv-x="1480" d="M160 0v1434h534q154 0 284.5 -49t224.5 -140t147 -226.5t53 -301.5t-53 -301.5t-147 -226.5t-224.5 -140t-284.5 -49h-534zM401 227h293q217 0 331 131t114 359t-114 358.5t-331 130.5h-293v-979z" />
<glyph unicode="E" horiz-adv-x="1155" d="M160 0v1434h903v-230h-657v-342h514v-229h-514v-404h677v-229h-923z" />
<glyph unicode="F" horiz-adv-x="1075" d="M160 0v1434h880v-230h-639v-342h494v-229h-494v-633h-241z" />
<glyph unicode="G" horiz-adv-x="1368" d="M76 719q0 222 91.5 391.5t254 260.5t371.5 91q107 0 228.5 -23.5t199.5 -60.5l-25 -225q-210 82 -397 82q-115 0 -204 -39t-144 -109t-83 -162.5t-28 -203.5q0 -154 51 -270t160 -184t266 -68q108 0 209 28v287h-178v205h420v-639q-80 -44 -225 -76.5t-267 -32.5 q-149 0 -277.5 53.5t-222 149.5t-147 237t-53.5 308z" />
<glyph unicode="H" horiz-adv-x="1519" d="M160 0v1434h241v-570h717v570h242v-1434h-242v633h-717v-633h-241z" />
<glyph unicode="I" horiz-adv-x="561" d="M160 0v1434h241v-1434h-241z" />
<glyph unicode="J" horiz-adv-x="559" d="M-16 -180h41q76 0 105.5 43t29.5 141v1430h239v-1487q0 -148 -85.5 -223.5t-247.5 -75.5h-62z" />
<glyph unicode="K" horiz-adv-x="1245" d="M160 0v1434h241v-1434h-241zM461 758l510 676h266l-508 -676l508 -758h-266z" />
<glyph unicode="L" horiz-adv-x="1028" d="M160 0v1434h241v-1205h611v-229h-852z" />
<glyph unicode="M" horiz-adv-x="1691" d="M92 0l197 1434h200l359 -672l354 672h201l196 -1434h-251l-127 999l-373 -686l-377 684l-127 -997h-252z" />
<glyph unicode="N" horiz-adv-x="1445" d="M160 0v1434h243l641 -971v971h242v-1434h-199l-686 1030v-1030h-241z" />
<glyph unicode="O" horiz-adv-x="1564" d="M76 717q0 223 91 393t251 261t364 91q153 0 283.5 -53t224 -149t146.5 -236t53 -307t-53 -307t-146.5 -236t-224 -149.5t-283.5 -53.5t-283.5 53.5t-223.5 149.5t-146 236t-53 307zM340 717q0 -151 48.5 -266.5t149.5 -183.5t244 -68q213 0 328 143.5t115 374.5 t-115 374.5t-328 143.5q-143 0 -244 -68t-149.5 -183.5t-48.5 -266.5z" />
<glyph unicode="P" horiz-adv-x="1206" d="M160 0v1434h422q96 0 167 -6.5t140.5 -24t116.5 -49.5t83.5 -81.5t54 -122.5t17.5 -169q0 -115 -31.5 -205t-80.5 -144t-115.5 -89.5t-128.5 -48.5t-127 -13h-275v-481h-243zM403 705h238q146 0 209 63.5t63 208.5q0 138 -62.5 195t-229.5 57h-218v-524z" />
<glyph unicode="Q" horiz-adv-x="1564" d="M76 717q0 223 91 393t251 261t364 91q153 0 283.5 -53t224 -149t146.5 -236t53 -307q0 -262 -135 -463l127 -102l-138 -164l-139 114q-180 -131 -422 -131q-153 0 -283.5 53.5t-223.5 149.5t-146 236t-53 307zM340 717q0 -113 28 -206.5t82 -163.5t139 -109t193 -39 q145 0 238 59l-184 154l135 163l192 -163q68 123 68 305q0 151 -50 266.5t-152.5 183.5t-246.5 68q-108 0 -193 -39t-139 -109t-82 -163.5t-28 -206.5z" />
<glyph unicode="R" horiz-adv-x="1267" d="M160 0v1434h506q493 0 493 -416q0 -272 -248 -414l326 -604h-252l-303 541h-279v-541h-243zM403 768h230q144 0 209 60t65 178q0 113 -64 170t-218 57h-222v-465z" />
<glyph unicode="S" horiz-adv-x="1193" d="M80 1036q0 59 16 116.5t55 114.5t96.5 99.5t148 69t202.5 26.5q134 0 262 -33t193 -73l-25 -250q-121 65 -220 97t-198 32q-50 0 -96.5 -8.5t-89 -27t-68.5 -53t-26 -81.5q0 -35 16.5 -64.5t40 -49.5t66.5 -40.5t78.5 -32.5t93.5 -30q188 -57 270 -99q194 -100 227 -279 q8 -41 8 -87q0 -38 -5 -73.5t-20.5 -78t-40 -78t-68 -70.5t-100 -59t-139.5 -38.5t-184 -14.5q-151 0 -277.5 29.5t-195.5 71.5l31 276q69 -63 186.5 -106t262.5 -43q129 0 205.5 42t76.5 134q0 28 -6.5 52.5t-22 45t-31 37t-44.5 33t-49.5 27.5t-60 25.5t-62 22.5t-68.5 23 q-178 60 -249 99q-160 87 -184 235q-5 29 -5 61z" />
<glyph unicode="T" horiz-adv-x="1134" d="M37 1204v230h1061v-230h-410v-1204h-242v1204h-409z" />
<glyph unicode="U" horiz-adv-x="1474" d="M143 612v822h242v-732q0 -88 8 -156.5t30.5 -136t61 -112t102.5 -71.5t150 -27t150.5 27t102.5 71.5t61 111.5t31 136t8 157v732h241v-822q0 -302 -149.5 -471.5t-444.5 -169.5t-444.5 169.5t-149.5 471.5z" />
<glyph unicode="V" horiz-adv-x="1341" d="M4 1434h252l416 -1127l409 1127h252l-518 -1434h-285z" />
<glyph unicode="W" horiz-adv-x="1980" d="M25 1434h251l295 -1080l332 1071h180l342 -1050l287 1059h252l-420 -1434h-227l-324 1024l-327 -1024h-238z" />
<glyph unicode="X" horiz-adv-x="1269" d="M6 0l498 715l-484 719h279l344 -521l332 521h272l-483 -693l504 -741h-273l-368 545l-351 -545h-270z" />
<glyph unicode="Y" horiz-adv-x="1206" d="M-12 1434h256l358 -576l359 576h256l-492 -791v-643h-244v643z" />
<glyph unicode="Z" horiz-adv-x="1126" d="M18 0l695 1204h-602v230h999l-694 -1205h602v-229h-1000z" />
<glyph unicode="[" horiz-adv-x="684" d="M139 -279v1815h527v-197h-314v-1419h314v-199h-527z" />
<glyph unicode="\" horiz-adv-x="1110" d="M68 1434h249l756 -1608h-250z" />
<glyph unicode="]" horiz-adv-x="696" d="M31 -49h313v1356h-313v229h526v-1815h-526v230z" />
<glyph unicode="^" horiz-adv-x="1046" d="M100 844v274l422 436l422 -436v-274l-422 436z" />
<glyph unicode="_" horiz-adv-x="1150" d="M2 -74h1147v-188h-1147v188z" />
<glyph unicode="`" horiz-adv-x="620" d="M119 1331v193l383 -189v-131z" />
<glyph unicode="a" horiz-adv-x="1009" d="M45 283q0 69 28 126t76.5 95t107 66t127 43.5t128 23t117.5 8.5q-3 103 -49 146t-148 43q-123 0 -274 -82l-25 188q175 96 363 96q184 0 275 -101.5t91 -332.5v-254q0 -114 18 -146t81 -32h26l-22 -190h-70q-95 0 -151 32t-87 94q-52 -60 -134.5 -93t-176.5 -33 q-131 0 -216 83t-85 220zM287 293q0 -133 143 -133q48 0 104.5 25t94.5 67v235q-98 -4 -172.5 -24.5t-122 -64t-47.5 -105.5z" />
<glyph unicode="b" horiz-adv-x="1165" d="M123 0v1536h231v-588q103 88 262 88q114 0 207.5 -42.5t154 -115.5t93.5 -168t33 -202q0 -146 -57.5 -265t-170 -191t-260.5 -72q-158 0 -270 100l-8 -80h-215zM344 508q0 -158 67.5 -246t186.5 -88q124 0 196 93t72 241q0 149 -72 240.5t-196 91.5q-119 0 -186.5 -88.5 t-67.5 -243.5z" />
<glyph unicode="c" horiz-adv-x="921" d="M61 508q0 87 20 165.5t60.5 145t99 115t140 75.5t178.5 27q192 0 307 -71l-24 -201q-127 76 -262 76q-134 0 -207.5 -89.5t-73.5 -242.5q0 -152 73.5 -243t207.5 -91t264 76l22 -195q-55 -36 -124.5 -55.5t-182.5 -19.5q-97 0 -178.5 27.5t-140 76t-99 115.5t-60.5 145 t-20 164z" />
<glyph unicode="d" horiz-adv-x="1165" d="M61 508q0 107 33 202t93.5 168t154 115.5t207.5 42.5q159 0 260 -88v588h233v-1536h-217l-8 80q-112 -100 -268 -100q-148 0 -260.5 72t-170 191t-57.5 265zM299 508q0 -148 71.5 -241t194.5 -93q120 0 190 87.5t70 244.5q0 155 -70.5 244.5t-189.5 89.5 q-124 0 -195 -91.5t-71 -240.5z" />
<glyph unicode="e" horiz-adv-x="1052" d="M59 510q0 107 33 202t94 167t155.5 114.5t209.5 42.5q194 0 319 -119.5t125 -318.5q0 -48 -14 -127h-682q14 -105 64.5 -173.5t116.5 -96t147 -27.5q69 0 155 21.5t152 54.5l16 -193q-154 -77 -340 -77q-134 0 -240.5 42t-173.5 115.5t-102 168.5t-35 204zM309 629h449 q0 88 -50.5 149.5t-152.5 61.5t-163.5 -56.5t-82.5 -154.5z" />
<glyph unicode="f" horiz-adv-x="694" d="M29 829l24 189h131v246q0 115 63 193.5t179 78.5q101 0 223 -16l-22 -195q-45 12 -115 12q-61 0 -78.5 -35.5t-17.5 -150.5v-133h239v-189h-239v-829h-232v829h-155z" />
<glyph unicode="g" horiz-adv-x="1024" d="M51 -209q0 68 41.5 128t130.5 99q-96 54 -96 142q0 91 106 143q-161 115 -161 330q0 111 46.5 201.5t141.5 146t225 55.5q137 0 240 -65q96 49 227 49h52l-19 -150h-78q-35 0 -78 -6q72 -99 72 -229q0 -168 -110.5 -285t-301.5 -117q-58 0 -118 13q-31 -17 -31 -41 q0 -35 56.5 -52t215.5 -40q39 -5 70.5 -10.5t76.5 -17t79 -25.5t70.5 -37.5t60.5 -51.5t39.5 -68.5t15.5 -88.5q0 -145 -130.5 -235.5t-363.5 -90.5q-123 0 -218.5 26.5t-150.5 71t-82.5 96.5t-27.5 109zM252 -190q0 -69 72 -111.5t200 -42.5t207.5 41t79.5 106 q0 32 -20.5 55.5t-61 39t-84 25.5t-104.5 18q-116 17 -142 20q-65 -20 -106 -58.5t-41 -92.5zM283 633q0 -105 54 -166t150 -61q97 0 150 62.5t53 166.5q0 105 -54.5 165t-150.5 60q-98 0 -150 -61t-52 -166z" />
<glyph unicode="h" horiz-adv-x="1126" d="M123 0v1536h231v-590q103 90 238 90q424 0 424 -489v-547h-232v547q0 155 -50 224t-165 69q-137 0 -215 -101v-739h-231z" />
<glyph unicode="i" horiz-adv-x="479" d="M123 0v1018h233v-1018h-233zM123 1194v240h233v-240h-233z" />
<glyph unicode="j" horiz-adv-x="479" d="M-8 -307q48 2 69 6t38 23t20.5 51t3.5 96v1149h233v-1243q0 -121 -70.5 -192.5t-189.5 -74.5l-82 -4zM123 1194v240h233v-240h-233z" />
<glyph unicode="k" horiz-adv-x="976" d="M123 0v1536h233v-948l338 430h269l-388 -483l390 -535h-267l-342 471v-471h-233z" />
<glyph unicode="l" horiz-adv-x="528" d="M121 240v1296h233v-1192q0 -43 1.5 -70.5t8 -48t14 -31t25 -16.5t35 -7t49.5 -1l-22 -190h-82q-132 0 -197 73.5t-65 186.5z" />
<glyph unicode="m" horiz-adv-x="1783" d="M123 0v1018h188l17 -88q122 106 274 106q97 0 182 -41t140 -129q38 70 128.5 120t219.5 50q197 0 299 -125.5t102 -347.5v-563h-233v563q0 144 -47.5 210.5t-157.5 66.5q-221 0 -221 -224v-616h-232v551q0 165 -51 227t-164 62q-143 0 -213 -99v-741h-231z" />
<glyph unicode="n" horiz-adv-x="1136" d="M123 0v1018h209l8 -76q120 94 258 94q428 0 428 -485v-551h-231v551q0 151 -52 220t-170 69q-144 0 -219 -101v-739h-231z" />
<glyph unicode="o" horiz-adv-x="1142" d="M59 508q0 145 59.5 264t177.5 191.5t275 72.5t275 -72.5t177.5 -191.5t59.5 -264q0 -146 -59.5 -265t-177.5 -191t-275 -72t-275 72t-177.5 191t-59.5 265zM297 508q0 -154 72.5 -244t201.5 -90t202 90t73 244q0 152 -73 242t-202 90t-201.5 -89.5t-72.5 -242.5z" />
<glyph unicode="p" horiz-adv-x="1165" d="M123 -496v1514h196l21 -86q61 53 124.5 78.5t153.5 25.5q114 0 207.5 -42.5t153.5 -115.5t92.5 -168t32.5 -202q0 -109 -32 -204.5t-91.5 -168t-153 -114t-209.5 -41.5q-153 0 -264 94v-570h-231zM344 508q0 -157 68.5 -245.5t187.5 -88.5q123 0 194.5 93t71.5 241 q0 149 -71 240.5t-195 91.5q-119 0 -187.5 -88.5t-68.5 -243.5z" />
<glyph unicode="q" horiz-adv-x="1165" d="M61 508q0 107 32.5 202t92.5 168t153.5 115.5t207.5 42.5q90 0 153.5 -25.5t124.5 -78.5l21 86h196v-1514h-233v570q-108 -94 -262 -94q-116 0 -209.5 41.5t-153 114t-91.5 168t-32 204.5zM299 508q0 -148 71.5 -241t194.5 -93q119 0 187.5 88.5t68.5 245.5 q0 155 -68.5 243.5t-187.5 88.5q-124 0 -195 -91.5t-71 -240.5z" />
<glyph unicode="r" horiz-adv-x="692" d="M123 0v1018h211l12 -127q134 149 293 149h51l-45 -227h-86q-61 0 -118 -33t-81 -78v-702h-237z" />
<glyph unicode="s" horiz-adv-x="862" d="M66 59l22 205q49 -38 138 -70t177 -32t129 33t41 84q0 27 -12 49t-27 35.5t-46 27.5t-50 20.5t-57 18.5q-40 12 -61.5 18.5t-59 21t-58 28t-47.5 36t-41 47t-24 60t-10 76.5q0 59 19.5 112.5t60.5 101.5t117 76.5t178 28.5q93 0 176 -22t131 -51l-23 -201 q-46 41 -119.5 71.5t-150.5 30.5q-78 0 -128 -29t-50 -90q0 -45 33.5 -75.5t67.5 -42.5t122 -34q2 -1 3.5 -1.5l3 -1t3.5 -0.5q43 -11 78 -24.5t75 -38.5t67 -56.5t45 -80.5t18 -109q0 -43 -8.5 -81t-34.5 -80t-67.5 -71.5t-114.5 -49t-170 -19.5q-115 0 -207 23.5 t-139 55.5z" />
<glyph unicode="t" horiz-adv-x="700" d="M33 829l20 189h133v231l232 25v-256h237v-189h-237v-483q0 -46 1 -71.5t8.5 -48.5t16 -31.5t31.5 -15.5t46 -8t69 -1h63l-20 -190h-176q-70 0 -123.5 22t-85 60t-47 83t-15.5 95v589h-153z" />
<glyph unicode="u" horiz-adv-x="1114" d="M111 457v561h231v-545q0 -151 51 -223t162 -72q135 0 205 94v746h231v-1018h-213l-10 76q-46 -44 -110 -70t-134 -26q-413 0 -413 477z" />
<glyph unicode="v" horiz-adv-x="1017" d="M12 1018h236l260 -737l260 737h238l-390 -1018h-215z" />
<glyph unicode="w" horiz-adv-x="1484" d="M20 1018h240l180 -742l199 717h207l196 -717l185 742h237l-301 -1018h-211l-209 690l-211 -690h-210z" />
<glyph unicode="x" horiz-adv-x="997" d="M20 0l338 508l-333 510h272l207 -324l190 324h277l-332 -504l336 -514h-275l-206 322l-199 -322h-275z" />
<glyph unicode="y" horiz-adv-x="1085" d="M8 1018h258l279 -686l272 686h258l-633 -1514h-239l229 557z" />
<glyph unicode="z" horiz-adv-x="972" d="M47 0l477 817h-456v201h858l-480 -817h461v-201h-860z" />
<glyph unicode="{" horiz-adv-x="647" d="M35 629q90 52 126 116t36 179q0 48 -8.5 147t-8.5 137q0 163 101 244t344 84v-199q-66 -1 -107.5 -4.5t-72.5 -20t-45.5 -32t-23 -58t-10 -79.5t-1.5 -113q0 -26 3 -84t3 -86q0 -77 -25 -131.5t-100 -99.5q76 -44 100.5 -93t24.5 -122q0 -26 -3 -87.5t-3 -97.5 q0 -46 0.5 -71.5t2.5 -59t5 -50t10 -38.5t16.5 -32t24.5 -22.5t33 -17t43.5 -10t55.5 -7t69 -1.5v-199q-239 3 -342 83t-103 245q0 38 8.5 138t8.5 149q0 110 -35 176t-127 117z" />
<glyph unicode="|" horiz-adv-x="475" d="M139 -430v1966h197v-1966h-197z" />
<glyph unicode="}" horiz-adv-x="647" d="M23 -80q66 1 107.5 4.5t72 20.5t45 32.5t23 58.5t9.5 79t1 114q0 36 -3.5 97.5t-3.5 87.5q0 73 24.5 122t100.5 93q-75 45 -100 99.5t-25 131.5q0 28 3.5 86t3.5 84q0 78 -1 113.5t-9.5 79t-23 58.5t-45 31.5t-72 20t-107.5 4.5v199q124 -1 210.5 -23t137 -65 t72.5 -101.5t22 -138.5q0 -38 -7 -137.5t-7 -146.5q0 -115 36 -179t125 -116q-92 -51 -126.5 -117t-34.5 -176q0 -49 7 -149t7 -138q0 -165 -102.5 -245t-339.5 -83v199z" />
<glyph unicode="~" horiz-adv-x="948" d="M98 391q14 95 86.5 148t155.5 53q47 0 95 -22.5t89 -45t72 -22.5q45 0 78.5 29t46.5 69l129 -35q-18 -85 -81.5 -144t-154.5 -59q-53 0 -140.5 46.5t-121.5 46.5q-85 0 -114 -99z" />
<glyph unicode="&#xa1;" horiz-adv-x="495" d="M121 -512l47 1126h160l47 -1126h-254zM133 795v229h229v-229h-229z" />
<glyph unicode="&#xa2;" horiz-adv-x="972" d="M68 713q0 207 113.5 354t322.5 174l-39 291h180l-37 -289q158 -9 264 -72l-20 -198q-128 78 -264 78q-128 0 -201.5 -94t-73.5 -244t73.5 -244t201.5 -94q136 0 264 78l20 -199q-106 -65 -260 -74l33 -246h-180l35 250q-207 27 -319.5 174.5t-112.5 354.5z" />
<glyph unicode="&#xa3;" horiz-adv-x="1062" d="M68 0q109 134 162 290.5t73 356.5h-186l35 158h159v225q0 68 6 120.5t27 111t57 96.5t99.5 63t150.5 25q130 0 201.5 -51.5t97.5 -149.5l-86 -108q-14 39 -25 61.5t-30 47t-47 35.5t-66 11q-44 0 -75.5 -16t-49.5 -41.5t-27.5 -67.5t-12.5 -82t-3 -98v-182h385l-36 -158 h-357q-8 -133 -30.5 -233t-77.5 -221h522v-193h-866z" />
<glyph unicode="&#xa4;" horiz-adv-x="1290" d="M121 131l149 203q-143 152 -143 379q0 228 145 379l-151 202l102 86l154 -204q129 63 268 63q141 0 268 -65l156 206l102 -86l-151 -204q143 -152 143 -377q0 -224 -145 -381l153 -201l-102 -86l-156 205q-125 -64 -268 -64t-268 64l-154 -205zM365 713q0 -153 74 -248.5 t206 -95.5t206.5 95.5t74.5 248.5t-74.5 248.5t-206.5 95.5t-206 -95.5t-74 -248.5z" />
<glyph unicode="&#xa5;" horiz-adv-x="1423" d="M57 1434h246l410 -586l409 586h246l-508 -758h314l-52 -129h-288v-127h340l-52 -133h-288v-287h-242v287h-346l47 133h299v127h-346l47 129h272z" />
<glyph unicode="&#xa6;" horiz-adv-x="462" d="M141 373h181v-803h-181v803zM141 596v940h181v-940h-181z" />
<glyph unicode="&#xa7;" horiz-adv-x="942" d="M80 678q0 232 188 303q-56 42 -78 93.5t-22 121.5q0 64 17.5 121t55.5 108t108.5 81t166.5 30q84 0 170 -26t125 -58l-20 -188q-60 42 -133.5 70t-133.5 28q-81 0 -134.5 -34.5t-53.5 -102.5q0 -47 29 -82t75.5 -57t102.5 -43t112 -49t102.5 -65t75.5 -101t29 -148 q0 -41 -7.5 -79t-26.5 -80.5t-58.5 -79t-95.5 -58.5q56 -45 77 -96t21 -127q0 -48 -10 -92.5t-35 -89.5t-63.5 -78t-100 -53.5t-139.5 -20.5q-84 0 -169.5 25.5t-123.5 58.5l23 188q61 -42 132.5 -70t131.5 -28q85 0 138.5 32t53.5 103q0 50 -29 85.5t-76 58t-103.5 42.5 t-113 46.5t-103.5 63t-76 99.5t-29 148zM258 717q0 -157 287 -230q49 6 94 55t45 103q0 34 -12.5 62.5t-37.5 49.5t-48.5 36t-61.5 27.5t-58 18.5t-56 15q-47 0 -99.5 -37.5t-52.5 -99.5z" />
<glyph unicode="&#xa8;" horiz-adv-x="864" d="M178 1221v213h182v-213h-182zM504 1221v213h182v-213h-182z" />
<glyph unicode="&#xa9;" horiz-adv-x="1435" d="M82 748q0 150 48 276t132 212.5t202 134.5t255 48t254.5 -48t201.5 -134.5t131.5 -212.5t47.5 -276q0 -198 -81.5 -351.5t-226 -237t-327.5 -83.5q-137 0 -255 48.5t-202 135.5t-132 213t-48 275zM223 748q0 -118 31.5 -217t91.5 -173t155.5 -115.5t217.5 -41.5 q160 0 273 72.5t166.5 194t53.5 280.5q0 118 -31 216.5t-91 172t-155 114.5t-216 41q-122 0 -217.5 -41t-155.5 -114.5t-91.5 -172t-31.5 -216.5zM403 743q0 158 93 255.5t239 97.5q104 0 203 -45l-18 -158q-110 45 -185 45q-77 0 -118.5 -52.5t-41.5 -142.5 q0 -87 42 -140.5t118 -53.5q82 0 185 49l18 -156q-87 -49 -203 -49q-146 0 -239 96.5t-93 253.5z" />
<glyph unicode="&#xaa;" horiz-adv-x="735" d="M66 1073q0 47 27 85t65.5 59.5t87.5 36.5t85 21t66 7q-16 53 -90 53q-23 0 -47.5 -3.5t-40.5 -7.5t-44.5 -12t-45.5 -12l-12 154q122 41 243 41q98 0 165 -48t67 -136v-203q0 -38 9 -48.5t30 -10.5h28l-10 -160h-100q-24 0 -64 15t-57 32q-24 -23 -78.5 -35t-111.5 -12 q-71 0 -121.5 47.5t-50.5 136.5zM270 1077q0 -49 72 -49q30 0 57 10v119q-5 -1 -14 -3.5t-31 -10t-39 -16t-31 -22.5t-14 -28z" />
<glyph unicode="&#xab;" horiz-adv-x="1216" d="M27 582l307 422h270l-307 -422l307 -422h-270zM559 582l307 422h273l-310 -422l310 -422h-273z" />
<glyph unicode="&#xac;" horiz-adv-x="1212" d="M127 662v169h942v-522h-168v353h-774z" />
<glyph unicode="&#xad;" horiz-adv-x="860" d="M113 471v193h635v-193h-635z" />
<glyph unicode="&#xae;" horiz-adv-x="1435" d="M82 748q0 150 48 276t132 212.5t202 134.5t255 48t254.5 -48t201.5 -134.5t131.5 -212.5t47.5 -276q0 -198 -81.5 -351.5t-226 -237t-327.5 -83.5q-137 0 -255 48.5t-202 135.5t-132 213t-48 275zM225 748q0 -117 31 -215.5t91 -172.5t155 -115.5t217 -41.5 q160 0 272.5 72.5t165.5 193.5t53 279q0 118 -31 216t-90.5 171.5t-154 114t-215.5 40.5q-240 0 -367 -149.5t-127 -392.5zM467 420v678h254q115 0 177.5 -49.5t62.5 -169.5q0 -56 -29.5 -103.5t-73.5 -75.5l150 -280h-170l-129 233h-78v-233h-164zM631 803h59q58 0 79.5 21 t21.5 59q0 39 -20 58.5t-77 19.5h-63v-158z" />
<glyph unicode="&#xb0;" horiz-adv-x="673" d="M66 1266q0 120 73 200t197 80q125 0 198.5 -80t73.5 -200t-73.5 -199.5t-198.5 -79.5q-124 0 -197 80t-73 199zM190 1266q0 -84 39.5 -137.5t106.5 -53.5q70 0 107.5 53.5t37.5 137.5t-37.5 138t-107.5 54q-68 0 -107 -54.5t-39 -137.5z" />
<glyph unicode="&#xb1;" horiz-adv-x="1007" d="M125 70v174h758v-174h-758zM125 645v176h293v269h172v-269h293v-176h-293v-272h-172v272h-293z" />
<glyph unicode="&#xb2;" horiz-adv-x="632" d="M41 655q142 193 218 315.5t92 164.5t16 75q0 43 -22.5 69t-65.5 26q-36 0 -70 -16.5t-58.5 -42.5t-38 -44.5t-22.5 -34.5l-22 166q26 46 89.5 79.5t153.5 33.5q63 0 109 -19t70.5 -51t35.5 -65.5t11 -69.5q0 -73 -43 -167t-138 -234h209v-185h-524z" />
<glyph unicode="&#xb3;" horiz-adv-x="628" d="M37 700l45 170q1 -18 58 -33.5t106 -15.5q67 0 105 17t38 49q0 57 -23 89t-85 32h-127l14 137h65q64 0 92.5 23.5t28.5 50.5q0 33 -24.5 58.5t-81.5 25.5q-94 0 -133 -33l-25 125q23 22 76 36.5t106 14.5q77 0 132.5 -21.5t82 -56t37.5 -67.5t11 -68q0 -55 -17 -96.5 t-37 -51.5q3 -4 22 -26.5t24.5 -32t17.5 -31t16 -44.5t4 -52q0 -122 -90.5 -191t-216.5 -69q-69 0 -139 22t-82 39z" />
<glyph unicode="&#xb4;" horiz-adv-x="620" d="M119 1204v131l383 189v-193z" />
<glyph unicode="&#xb5;" horiz-adv-x="1249" d="M150 -496v1514h231v-545q0 -152 50 -224.5t167 -72.5q67 0 115.5 23.5t91.5 72.5v746h231v-668q0 -111 17.5 -145.5t74.5 -34.5h35l-24 -190h-80q-158 0 -221 120q-109 -118 -260 -118q-112 0 -197 45v-523h-231z" />
<glyph unicode="&#xb6;" d="M68 958q0 91 37 174.5t107 151.5t185 109t258 41h533v-195h-146v-1239h-153v1239h-154v-1239h-123v477q-134 8 -240 52.5t-171 112t-99 148.5t-34 168z" />
<glyph unicode="&#xb7;" horiz-adv-x="479" d="M113 436v266h254v-266h-254z" />
<glyph unicode="&#xb8;" horiz-adv-x="620" d="M274 -395l142 270l188 16l-196 -272z" />
<glyph unicode="&#xb9;" horiz-adv-x="450" d="M53 1309q30 0 77 41t56 80h144v-775h-183v519q-33 -7 -88 -9z" />
<glyph unicode="&#xba;" horiz-adv-x="768" d="M61 1192q0 125 88 214t236 89q147 0 234.5 -89t87.5 -214t-87.5 -214t-234.5 -89q-148 0 -236 89t-88 214zM258 1192q0 -66 34.5 -111t92.5 -45q57 0 91 45.5t34 110.5t-34 110.5t-91 45.5q-58 0 -92.5 -45t-34.5 -111z" />
<glyph unicode="&#xbb;" horiz-adv-x="1216" d="M80 160l309 422l-309 422h272l307 -422l-307 -422h-272zM612 160l308 422l-308 422h271l309 -422l-309 -422h-271z" />
<glyph unicode="&#xbc;" horiz-adv-x="1497" d="M84 1309q30 0 77 41t56 80h143v-775h-182v519q-33 -7 -88 -9zM123 -174l756 1608h254l-756 -1608h-254zM786 211l383 563h160v-426h101v-137h-101v-211h-184v211h-359zM1022 348h123v176z" />
<glyph unicode="&#xbd;" horiz-adv-x="1501" d="M78 1309q30 0 77 41t56 80h143v-775h-182v519q-33 -7 -88 -9zM117 -174l755 1608h254l-755 -1608h-254zM905 0q142 193 218 315.5t92 164.5t16 75q0 43 -22.5 68.5t-65.5 25.5q-36 0 -70 -16.5t-58.5 -42t-38 -44t-22.5 -34.5l-22 166q26 46 90 79.5t154 33.5 q63 0 109 -19t70 -51t35 -65.5t11 -69.5q0 -73 -43 -168t-137 -234h209v-184h-525z" />
<glyph unicode="&#xbe;" horiz-adv-x="1839" d="M63 700l46 170q1 -18 57.5 -33.5t105.5 -15.5q67 0 105.5 17t38.5 49q0 57 -23.5 89t-85.5 32h-127l15 137h65q64 0 92.5 23.5t28.5 50.5q0 33 -25 58.5t-82 25.5q-94 0 -133 -33l-24 125q23 22 76 36.5t106 14.5q63 0 111 -14.5t76 -37t45.5 -52.5t23.5 -56t6 -53 q0 -56 -16.5 -97t-36.5 -51q3 -4 22 -26.5t24.5 -32t17.5 -31t16 -44.5t4 -52q0 -122 -90.5 -191t-216.5 -69q-69 0 -139.5 22t-82.5 39zM461 -174l756 1608h253l-755 -1608h-254zM1126 211l383 563h160v-426h100v-137h-100v-211h-184v211h-359zM1362 348h123v176z" />
<glyph unicode="&#xbf;" horiz-adv-x="905" d="M102 -125q0 69 34 142.5t82 138.5t96 130.5t82 142.5t34 151v34h156q6 -80 6 -104q0 -70 -28 -139.5t-68 -126.5t-80.5 -114t-68.5 -122.5t-28 -130.5q0 -102 64.5 -155.5t161.5 -53.5q86 0 154 39.5t104 95.5l55 -172q-45 -69 -133.5 -106t-194.5 -37q-83 0 -155 24.5 t-121 64t-84 90.5t-51.5 104t-16.5 104zM391 795v229h232v-229h-232z" />
<glyph unicode="&#xc0;" d="M10 0l510 1434h236l512 -1434h-252l-127 358h-500l-127 -358h-252zM446 1747v192l383 -188v-131zM469 588h338l-170 477z" />
<glyph unicode="&#xc1;" d="M10 0l510 1434h236l512 -1434h-252l-127 358h-500l-127 -358h-252zM446 1620v131l383 188v-192zM469 588h338l-170 477z" />
<glyph unicode="&#xc2;" d="M10 0l510 1434h236l512 -1434h-252l-127 358h-500l-127 -358h-252zM338 1626v127l301 195l301 -195v-127l-301 152zM469 588h338l-170 477z" />
<glyph unicode="&#xc3;" d="M10 0l510 1434h236l512 -1434h-252l-127 358h-500l-127 -358h-252zM262 1671q14 95 86.5 148t155.5 53q47 0 95 -22.5t89 -45t72 -22.5q44 0 78 29t47 69l129 -33q-18 -87 -81.5 -146t-154.5 -59q-53 0 -140.5 46.5t-121.5 46.5q-47 0 -75 -28.5t-40 -70.5zM469 588h338 l-170 477z" />
<glyph unicode="&#xc4;" d="M10 0l510 1434h236l512 -1434h-252l-127 358h-500l-127 -358h-252zM385 1636v213h182v-213h-182zM469 588h338l-170 477zM711 1636v213h182v-213h-182z" />
<glyph unicode="&#xc5;" d="M10 0l510 1434h236l512 -1434h-252l-127 358h-500l-127 -358h-252zM426 1778q0 77 58.5 130.5t154.5 53.5q98 0 155.5 -53.5t57.5 -130.5t-57 -130t-156 -53q-98 0 -155.5 53t-57.5 130zM469 588h338l-170 477zM539 1778q0 -43 29 -70t71 -27t71 27t29 70q0 41 -29 68.5 t-71 27.5t-71 -27.5t-29 -68.5z" />
<glyph unicode="&#xc6;" horiz-adv-x="1777" d="M-18 0l698 1434h1006v-230h-617v-342h475v-229h-475v-404h635v-229h-893v352h-410l-174 -352h-245zM512 586h299v612z" />
<glyph unicode="&#xc7;" horiz-adv-x="1255" d="M76 717q0 223 91.5 393t252.5 261t366 91q108 0 217 -23t187 -61l-27 -227q-76 28 -120.5 42.5t-116 28t-140.5 13.5q-214 0 -330 -143.5t-116 -374.5t116 -374.5t330 -143.5q100 0 184.5 21.5t192.5 62.5l27 -228q-79 -39 -187 -61.5t-217 -22.5q-153 0 -284.5 53.5 t-225.5 149.5t-147 236t-53 307zM463 -395l141 270l189 16l-197 -272z" />
<glyph unicode="&#xc8;" horiz-adv-x="1155" d="M160 0v1434h903v-230h-657v-342h514v-229h-514v-404h677v-229h-923zM371 1747v192l383 -188v-131z" />
<glyph unicode="&#xc9;" horiz-adv-x="1155" d="M160 0v1434h903v-230h-657v-342h514v-229h-514v-404h677v-229h-923zM371 1620v131l383 188v-192z" />
<glyph unicode="&#xca;" horiz-adv-x="1155" d="M160 0v1434h903v-230h-657v-342h514v-229h-514v-404h677v-229h-923zM260 1626v127l301 195l301 -195v-127l-301 152z" />
<glyph unicode="&#xcb;" horiz-adv-x="1155" d="M160 0v1434h903v-230h-657v-342h514v-229h-514v-404h677v-229h-923zM307 1636v213h182v-213h-182zM633 1636v213h182v-213h-182z" />
<glyph unicode="&#xcc;" horiz-adv-x="561" d="M90 1747v192l383 -188v-131zM160 0v1434h241v-1434h-241z" />
<glyph unicode="&#xcd;" horiz-adv-x="561" d="M90 1620v131l383 188v-192zM160 0v1434h241v-1434h-241z" />
<glyph unicode="&#xce;" horiz-adv-x="561" d="M-20 1626v127l301 195l301 -195v-127l-301 152zM160 0v1434h241v-1434h-241z" />
<glyph unicode="&#xcf;" horiz-adv-x="561" d="M27 1636v213h182v-213h-182zM160 0v1434h241v-1434h-241zM352 1636v213h183v-213h-183z" />
<glyph unicode="&#xd0;" horiz-adv-x="1499" d="M-10 621v174h192v639h533q153 0 283 -49t224 -140t146.5 -226.5t52.5 -301.5t-52.5 -301.5t-146.5 -226.5t-224 -140t-283 -49h-533v621h-192zM420 229h295q217 0 330.5 129.5t113.5 358.5t-113.5 359t-330.5 130h-295v-411h256v-174h-256v-392z" />
<glyph unicode="&#xd1;" horiz-adv-x="1445" d="M160 0v1434h243l641 -971v971h242v-1434h-199l-686 1030v-1030h-241zM346 1671q14 95 86.5 148t155.5 53q47 0 95 -22.5t89 -45t72 -22.5q44 0 78 29t47 69l129 -33q-18 -87 -81.5 -146t-154.5 -59q-53 0 -140.5 46.5t-121.5 46.5q-47 0 -75 -28.5t-40 -70.5z" />
<glyph unicode="&#xd2;" horiz-adv-x="1564" d="M76 717q0 223 91 393t251 261t364 91q153 0 283.5 -53t224 -149t146.5 -236t53 -307t-53 -307t-146.5 -236t-224 -149.5t-283.5 -53.5t-283.5 53.5t-223.5 149.5t-146 236t-53 307zM340 717q0 -151 48.5 -266.5t149.5 -183.5t244 -68q213 0 328 143.5t115 374.5 t-115 374.5t-328 143.5q-143 0 -244 -68t-149.5 -183.5t-48.5 -266.5zM590 1747v192l383 -188v-131z" />
<glyph unicode="&#xd3;" horiz-adv-x="1564" d="M76 717q0 223 91 393t251 261t364 91q153 0 283.5 -53t224 -149t146.5 -236t53 -307t-53 -307t-146.5 -236t-224 -149.5t-283.5 -53.5t-283.5 53.5t-223.5 149.5t-146 236t-53 307zM340 717q0 -151 48.5 -266.5t149.5 -183.5t244 -68q213 0 328 143.5t115 374.5 t-115 374.5t-328 143.5q-143 0 -244 -68t-149.5 -183.5t-48.5 -266.5zM590 1620v131l383 188v-192z" />
<glyph unicode="&#xd4;" horiz-adv-x="1564" d="M76 717q0 223 91 393t251 261t364 91q153 0 283.5 -53t224 -149t146.5 -236t53 -307t-53 -307t-146.5 -236t-224 -149.5t-283.5 -53.5t-283.5 53.5t-223.5 149.5t-146 236t-53 307zM340 717q0 -151 48.5 -266.5t149.5 -183.5t244 -68q213 0 328 143.5t115 374.5 t-115 374.5t-328 143.5q-143 0 -244 -68t-149.5 -183.5t-48.5 -266.5zM481 1626v127l301 195l301 -195v-127l-301 152z" />
<glyph unicode="&#xd5;" horiz-adv-x="1564" d="M76 717q0 223 91 393t251 261t364 91q153 0 283.5 -53t224 -149t146.5 -236t53 -307t-53 -307t-146.5 -236t-224 -149.5t-283.5 -53.5t-283.5 53.5t-223.5 149.5t-146 236t-53 307zM340 717q0 -151 48.5 -266.5t149.5 -183.5t244 -68q213 0 328 143.5t115 374.5 t-115 374.5t-328 143.5q-143 0 -244 -68t-149.5 -183.5t-48.5 -266.5zM408 1671q14 95 86 148t155 53q47 0 95 -22.5t89 -45t72 -22.5q45 0 78.5 29t46.5 69l129 -33q-18 -87 -81 -146t-154 -59q-53 0 -140.5 46.5t-121.5 46.5q-47 0 -75 -28.5t-40 -70.5z" />
<glyph unicode="&#xd6;" horiz-adv-x="1564" d="M76 717q0 223 91 393t251 261t364 91q153 0 283.5 -53t224 -149t146.5 -236t53 -307t-53 -307t-146.5 -236t-224 -149.5t-283.5 -53.5t-283.5 53.5t-223.5 149.5t-146 236t-53 307zM340 717q0 -151 48.5 -266.5t149.5 -183.5t244 -68q213 0 328 143.5t115 374.5 t-115 374.5t-328 143.5q-143 0 -244 -68t-149.5 -183.5t-48.5 -266.5zM528 1636v213h183v-213h-183zM854 1636v213h182v-213h-182z" />
<glyph unicode="&#xd7;" horiz-adv-x="913" d="M119 338l229 229l-229 230l108 108l230 -229l229 229l109 -108l-230 -230l230 -229l-109 -109l-229 230l-230 -230z" />
<glyph unicode="&#xd8;" horiz-adv-x="1564" d="M76 717q0 223 91 393t251 261t364 91q175 0 330 -73l55 77h248l-137 -198q211 -211 211 -551q0 -166 -53 -306t-146.5 -235.5t-224 -149t-283.5 -53.5q-184 0 -340 78l-77 -114h-248l159 233q-200 216 -200 547zM342 717q0 -189 84 -332l551 807q-100 41 -195 41 q-213 0 -326.5 -142.5t-113.5 -373.5zM578 244q96 -41 204 -41q213 0 327 142.5t114 373.5q0 213 -90 338z" />
<glyph unicode="&#xd9;" horiz-adv-x="1474" d="M143 612v822h242v-732q0 -88 8 -156.5t30.5 -136t61 -112t102.5 -71.5t150 -27t150.5 27t102.5 71.5t61 111.5t31 136t8 157v732h241v-822q0 -302 -149.5 -471.5t-444.5 -169.5t-444.5 169.5t-149.5 471.5zM545 1747v192l383 -188v-131z" />
<glyph unicode="&#xda;" horiz-adv-x="1474" d="M143 612v822h242v-732q0 -88 8 -156.5t30.5 -136t61 -112t102.5 -71.5t150 -27t150.5 27t102.5 71.5t61 111.5t31 136t8 157v732h241v-822q0 -302 -149.5 -471.5t-444.5 -169.5t-444.5 169.5t-149.5 471.5zM545 1620v131l383 188v-192z" />
<glyph unicode="&#xdb;" horiz-adv-x="1474" d="M143 612v822h242v-732q0 -88 8 -156.5t30.5 -136t61 -112t102.5 -71.5t150 -27t150.5 27t102.5 71.5t61 111.5t31 136t8 157v732h241v-822q0 -302 -149.5 -471.5t-444.5 -169.5t-444.5 169.5t-149.5 471.5zM436 1626v127l301 195l301 -195v-127l-301 152z" />
<glyph unicode="&#xdc;" horiz-adv-x="1474" d="M143 612v822h242v-732q0 -88 8 -156.5t30.5 -136t61 -112t102.5 -71.5t150 -27t150.5 27t102.5 71.5t61 111.5t31 136t8 157v732h241v-822q0 -302 -149.5 -471.5t-444.5 -169.5t-444.5 169.5t-149.5 471.5zM483 1636v213h183v-213h-183zM809 1636v213h182v-213h-182z" />
<glyph unicode="&#xdd;" horiz-adv-x="1206" d="M-12 1434h256l358 -576l359 576h256l-492 -791v-643h-244v643zM418 1620v131l383 188v-192z" />
<glyph unicode="&#xde;" horiz-adv-x="1161" d="M160 0v1434h243v-275h109q107 0 184.5 -5t150.5 -19t120.5 -39.5t84.5 -65t53.5 -97t16.5 -134.5q0 -219 -145 -307.5t-465 -88.5h-109v-403h-243zM403 573h179q159 0 228 53.5t69 159.5q0 107 -66.5 153t-230.5 46h-179v-412z" />
<glyph unicode="&#xdf;" horiz-adv-x="1155" d="M35 842l20 182h127v121q0 114 62.5 206t154.5 138.5t189 46.5q51 0 104.5 -13t106.5 -42.5t94.5 -72t67.5 -106.5t26 -141q0 -64 -18.5 -124.5t-44.5 -102.5t-52 -77t-44.5 -61.5t-18.5 -41.5q0 -18 22.5 -41.5t56 -48t73 -61.5t73 -77.5t56 -100t22.5 -126.5 q0 -87 -37 -152.5t-101.5 -103t-143.5 -56t-173 -18.5q-59 0 -116 8v170q74 1 120.5 4t92 12t70.5 25.5t40 45t15 69.5q0 62 -31.5 117.5t-76 96t-89 76.5t-76 73.5t-31.5 72.5q0 29 20.5 62t49.5 67t58.5 73t50 93t20.5 113q0 103 -55 151t-131 48q-84 0 -131 -53.5 t-47 -137.5v-1434h-228v1121h-147z" />
<glyph unicode="&#xe0;" horiz-adv-x="1009" d="M45 283q0 69 28 126t76.5 95t107 66t127 43.5t128 23t117.5 8.5q-3 103 -49 146t-148 43q-123 0 -274 -82l-25 188q175 96 363 96q184 0 275 -101.5t91 -332.5v-254q0 -114 18 -146t81 -32h26l-22 -190h-70q-95 0 -151 32t-87 94q-52 -60 -134.5 -93t-176.5 -33 q-131 0 -216 83t-85 220zM287 293q0 -133 143 -133q48 0 104.5 25t94.5 67v235q-98 -4 -172.5 -24.5t-122 -64t-47.5 -105.5zM313 1331v193l383 -189v-131z" />
<glyph unicode="&#xe1;" horiz-adv-x="1009" d="M45 283q0 69 28 126t76.5 95t107 66t127 43.5t128 23t117.5 8.5q-3 103 -49 146t-148 43q-123 0 -274 -82l-25 188q175 96 363 96q184 0 275 -101.5t91 -332.5v-254q0 -114 18 -146t81 -32h26l-22 -190h-70q-95 0 -151 32t-87 94q-52 -60 -134.5 -93t-176.5 -33 q-131 0 -216 83t-85 220zM287 293q0 -133 143 -133q48 0 104.5 25t94.5 67v235q-98 -4 -172.5 -24.5t-122 -64t-47.5 -105.5zM313 1204v131l383 189v-193z" />
<glyph unicode="&#xe2;" horiz-adv-x="1009" d="M45 283q0 69 28 126t76.5 95t107 66t127 43.5t128 23t117.5 8.5q-3 103 -49 146t-148 43q-123 0 -274 -82l-25 188q175 96 363 96q184 0 275 -101.5t91 -332.5v-254q0 -114 18 -146t81 -32h26l-22 -190h-70q-95 0 -151 32t-87 94q-52 -60 -134.5 -93t-176.5 -33 q-131 0 -216 83t-85 220zM205 1210v127l301 195l301 -195v-127l-301 152zM287 293q0 -133 143 -133q48 0 104.5 25t94.5 67v235q-98 -4 -172.5 -24.5t-122 -64t-47.5 -105.5z" />
<glyph unicode="&#xe3;" horiz-adv-x="1009" d="M45 283q0 69 28 126t76.5 95t107 66t127 43.5t128 23t117.5 8.5q-3 103 -49 146t-148 43q-123 0 -274 -82l-25 188q175 96 363 96q184 0 275 -101.5t91 -332.5v-254q0 -114 18 -146t81 -32h26l-22 -190h-70q-95 0 -151 32t-87 94q-52 -60 -134.5 -93t-176.5 -33 q-131 0 -216 83t-85 220zM123 1255q14 95 86.5 148t155.5 53q47 0 95 -22.5t89 -45t72 -22.5q44 0 77.5 29t46.5 69l129 -32q-18 -87 -81 -146t-154 -59q-53 0 -140.5 46t-121.5 46q-86 0 -115 -98zM287 293q0 -133 143 -133q48 0 104.5 25t94.5 67v235q-98 -4 -172.5 -24.5 t-122 -64t-47.5 -105.5z" />
<glyph unicode="&#xe4;" horiz-adv-x="1009" d="M45 283q0 69 28 126t76.5 95t107 66t127 43.5t128 23t117.5 8.5q-3 103 -49 146t-148 43q-123 0 -274 -82l-25 188q175 96 363 96q184 0 275 -101.5t91 -332.5v-254q0 -114 18 -146t81 -32h26l-22 -190h-70q-95 0 -151 32t-87 94q-52 -60 -134.5 -93t-176.5 -33 q-131 0 -216 83t-85 220zM252 1221v213h182v-213h-182zM287 293q0 -133 143 -133q48 0 104.5 25t94.5 67v235q-98 -4 -172.5 -24.5t-122 -64t-47.5 -105.5zM578 1221v213h182v-213h-182z" />
<glyph unicode="&#xe5;" horiz-adv-x="1009" d="M45 283q0 69 28 126t76.5 95t107 66t127 43.5t128 23t117.5 8.5q-3 103 -49 146t-148 43q-123 0 -274 -82l-25 188q175 96 363 96q184 0 275 -101.5t91 -332.5v-254q0 -114 18 -146t81 -32h26l-22 -190h-70q-95 0 -151 32t-87 94q-52 -60 -134.5 -93t-176.5 -33 q-131 0 -216 83t-85 220zM287 293q0 -133 143 -133q48 0 104.5 25t94.5 67v235q-98 -4 -172.5 -24.5t-122 -64t-47.5 -105.5zM293 1362q0 77 58.5 130.5t154.5 53.5q98 0 155.5 -53.5t57.5 -130.5t-57 -129.5t-156 -52.5q-98 0 -155.5 52.5t-57.5 129.5zM406 1362 q0 -43 29 -69.5t71 -26.5t71 26.5t29 69.5q0 41 -29 68.5t-71 27.5t-71 -27.5t-29 -68.5z" />
<glyph unicode="&#xe6;" horiz-adv-x="1632" d="M45 254q0 76 28 137t77.5 101t107 68.5t128.5 44.5t129 23.5t120 10.5q-9 105 -54.5 150t-148.5 45q-122 0 -272 -72l-21 186q187 88 355 88q259 0 315 -202q31 88 133 145t229 57q181 0 291.5 -116.5t110.5 -315.5q0 -58 -14 -133h-662q14 -149 99 -225t208 -76 q139 0 303 80l19 -191q-154 -79 -338 -79q-304 0 -410 204q-140 -215 -405 -215q-157 0 -242.5 76t-85.5 209zM287 274q0 -57 38 -88.5t97 -31.5q55 0 106 26t88 87t37 145q0 40 -2 69q-62 -1 -122.5 -12.5t-116.5 -35t-90.5 -65t-34.5 -94.5zM907 629h455q0 93 -49.5 152 t-149.5 59q-97 0 -165 -56t-91 -155z" />
<glyph unicode="&#xe7;" horiz-adv-x="921" d="M61 508q0 87 20 165.5t60.5 145t99 115t140 75.5t178.5 27q192 0 307 -71l-24 -201q-127 76 -262 76q-134 0 -207.5 -89.5t-73.5 -242.5q0 -152 73.5 -243t207.5 -91t264 76l22 -195q-55 -36 -124.5 -55.5t-182.5 -19.5q-97 0 -178.5 27.5t-140 76t-99 115.5t-60.5 145 t-20 164zM358 -395l142 270l188 16l-196 -272z" />
<glyph unicode="&#xe8;" horiz-adv-x="1052" d="M59 510q0 107 33 202t94 167t155.5 114.5t209.5 42.5q194 0 319 -119.5t125 -318.5q0 -48 -14 -127h-682q14 -105 64.5 -173.5t116.5 -96t147 -27.5q69 0 155 21.5t152 54.5l16 -193q-154 -77 -340 -77q-134 0 -240.5 42t-173.5 115.5t-102 168.5t-35 204zM309 629h449 q0 88 -50.5 149.5t-152.5 61.5t-163.5 -56.5t-82.5 -154.5zM334 1331v193l383 -189v-131z" />
<glyph unicode="&#xe9;" horiz-adv-x="1052" d="M59 510q0 107 33 202t94 167t155.5 114.5t209.5 42.5q194 0 319 -119.5t125 -318.5q0 -48 -14 -127h-682q14 -105 64.5 -173.5t116.5 -96t147 -27.5q69 0 155 21.5t152 54.5l16 -193q-154 -77 -340 -77q-134 0 -240.5 42t-173.5 115.5t-102 168.5t-35 204zM309 629h449 q0 88 -50.5 149.5t-152.5 61.5t-163.5 -56.5t-82.5 -154.5zM334 1204v131l383 189v-193z" />
<glyph unicode="&#xea;" horiz-adv-x="1052" d="M59 510q0 107 33 202t94 167t155.5 114.5t209.5 42.5q194 0 319 -119.5t125 -318.5q0 -48 -14 -127h-682q14 -105 64.5 -173.5t116.5 -96t147 -27.5q69 0 155 21.5t152 54.5l16 -193q-154 -77 -340 -77q-134 0 -240.5 42t-173.5 115.5t-102 168.5t-35 204zM223 1210v127 l301 195l301 -195v-127l-301 152zM309 629h449q0 88 -50.5 149.5t-152.5 61.5t-163.5 -56.5t-82.5 -154.5z" />
<glyph unicode="&#xeb;" horiz-adv-x="1052" d="M59 510q0 107 33 202t94 167t155.5 114.5t209.5 42.5q194 0 319 -119.5t125 -318.5q0 -48 -14 -127h-682q14 -105 64.5 -173.5t116.5 -96t147 -27.5q69 0 155 21.5t152 54.5l16 -193q-154 -77 -340 -77q-134 0 -240.5 42t-173.5 115.5t-102 168.5t-35 204zM270 1221v213 h183v-213h-183zM309 629h449q0 88 -50.5 149.5t-152.5 61.5t-163.5 -56.5t-82.5 -154.5zM596 1221v213h182v-213h-182z" />
<glyph unicode="&#xec;" horiz-adv-x="479" d="M49 1331v193l383 -189v-131zM123 0v1018h233v-1018h-233z" />
<glyph unicode="&#xed;" horiz-adv-x="479" d="M49 1204v131l383 189v-193zM123 0v1018h233v-1018h-233z" />
<glyph unicode="&#xee;" horiz-adv-x="479" d="M-61 1210v127l301 195l301 -195v-127l-301 152zM123 0v1018h233v-1018h-233z" />
<glyph unicode="&#xef;" horiz-adv-x="479" d="M-14 1221v213h182v-213h-182zM123 0v1018h233v-1018h-233zM311 1221v213h183v-213h-183z" />
<glyph unicode="&#xf0;" horiz-adv-x="1058" d="M43 418q0 84 27.5 163t79 145t136 106t189.5 40q150 0 252 -90q-9 78 -54.5 187t-97.5 147q-137 -104 -282 -121l-74 140q108 3 250 94q-120 104 -244 104l80 103q152 -3 299 -109q71 65 117 129l123 -31q-67 -103 -142 -186q125 -126 200 -315t75 -396 q0 -91 -15.5 -168.5t-42 -133.5t-64 -100t-79 -72.5t-89 -47t-93 -26t-92.5 -7.5q-196 0 -327.5 126.5t-131.5 318.5zM272 444q0 -115 62 -194.5t174 -79.5q97 0 162 66t65 188q0 120 -60 189t-171 69q-109 0 -170.5 -72t-61.5 -166z" />
<glyph unicode="&#xf1;" horiz-adv-x="1136" d="M123 0v1018h209l8 -76q120 94 258 94q428 0 428 -485v-551h-231v551q0 151 -52 220t-170 69q-144 0 -219 -101v-739h-231zM195 1255q14 95 86 148t155 53q47 0 95 -22.5t89 -45t72 -22.5q44 0 78 29t47 69l129 -32q-18 -87 -81 -146t-154 -59q-53 0 -140.5 46t-121.5 46 q-86 0 -115 -98z" />
<glyph unicode="&#xf2;" horiz-adv-x="1142" d="M59 508q0 145 59.5 264t177.5 191.5t275 72.5t275 -72.5t177.5 -191.5t59.5 -264q0 -146 -59.5 -265t-177.5 -191t-275 -72t-275 72t-177.5 191t-59.5 265zM297 508q0 -154 72.5 -244t201.5 -90t202 90t73 244q0 152 -73 242t-202 90t-201.5 -89.5t-72.5 -242.5z M379 1331v193l383 -189v-131z" />
<glyph unicode="&#xf3;" horiz-adv-x="1142" d="M59 508q0 145 59.5 264t177.5 191.5t275 72.5t275 -72.5t177.5 -191.5t59.5 -264q0 -146 -59.5 -265t-177.5 -191t-275 -72t-275 72t-177.5 191t-59.5 265zM297 508q0 -154 72.5 -244t201.5 -90t202 90t73 244q0 152 -73 242t-202 90t-201.5 -89.5t-72.5 -242.5z M379 1204v131l383 189v-193z" />
<glyph unicode="&#xf4;" horiz-adv-x="1142" d="M59 508q0 145 59.5 264t177.5 191.5t275 72.5t275 -72.5t177.5 -191.5t59.5 -264q0 -146 -59.5 -265t-177.5 -191t-275 -72t-275 72t-177.5 191t-59.5 265zM270 1210v127l301 195l301 -195v-127l-301 152zM297 508q0 -154 72.5 -244t201.5 -90t202 90t73 244 q0 152 -73 242t-202 90t-201.5 -89.5t-72.5 -242.5z" />
<glyph unicode="&#xf5;" horiz-adv-x="1142" d="M59 508q0 145 59.5 264t177.5 191.5t275 72.5t275 -72.5t177.5 -191.5t59.5 -264q0 -146 -59.5 -265t-177.5 -191t-275 -72t-275 72t-177.5 191t-59.5 265zM197 1255q14 95 86 148t155 53q47 0 95 -22.5t89 -45t72 -22.5q44 0 78 29t47 69l129 -32q-18 -87 -81 -146 t-154 -59q-53 0 -140.5 46t-121.5 46q-86 0 -115 -98zM297 508q0 -154 72.5 -244t201.5 -90t202 90t73 244q0 152 -73 242t-202 90t-201.5 -89.5t-72.5 -242.5z" />
<glyph unicode="&#xf6;" horiz-adv-x="1142" d="M59 508q0 145 59.5 264t177.5 191.5t275 72.5t275 -72.5t177.5 -191.5t59.5 -264q0 -146 -59.5 -265t-177.5 -191t-275 -72t-275 72t-177.5 191t-59.5 265zM297 508q0 -154 72.5 -244t201.5 -90t202 90t73 244q0 152 -73 242t-202 90t-201.5 -89.5t-72.5 -242.5z M317 1221v213h183v-213h-183zM643 1221v213h182v-213h-182z" />
<glyph unicode="&#xf7;" horiz-adv-x="1175" d="M117 481v178h942v-178h-942zM463 41v244h231v-244h-231zM463 850v244h231v-244h-231z" />
<glyph unicode="&#xf8;" horiz-adv-x="1153" d="M59 510q0 108 35.5 203.5t100.5 168t164 114.5t219 42q68 0 147 -18l35 74h201l-74 -148q102 -77 155.5 -190.5t53.5 -245.5q0 -145 -60 -264t-179.5 -191.5t-278.5 -72.5q-72 0 -154 18l-35 -74h-194l71 150q-101 74 -154 187.5t-53 246.5zM301 510q0 -128 61 -236 l277 570q-31 6 -64 6q-129 0 -201.5 -93.5t-72.5 -246.5zM510 176q49 -6 68 -6q130 0 203 94t73 246q0 161 -63 235z" />
<glyph unicode="&#xf9;" horiz-adv-x="1114" d="M111 457v561h231v-545q0 -151 51 -223t162 -72q135 0 205 94v746h231v-1018h-213l-10 76q-46 -44 -110 -70t-134 -26q-413 0 -413 477zM375 1331v193l383 -189v-131z" />
<glyph unicode="&#xfa;" horiz-adv-x="1114" d="M111 457v561h231v-545q0 -151 51 -223t162 -72q135 0 205 94v746h231v-1018h-213l-10 76q-46 -44 -110 -70t-134 -26q-413 0 -413 477zM375 1204v131l383 189v-193z" />
<glyph unicode="&#xfb;" horiz-adv-x="1114" d="M111 457v561h231v-545q0 -151 51 -223t162 -72q135 0 205 94v746h231v-1018h-213l-10 76q-46 -44 -110 -70t-134 -26q-413 0 -413 477zM266 1210v127l301 195l301 -195v-127l-301 152z" />
<glyph unicode="&#xfc;" horiz-adv-x="1114" d="M111 457v561h231v-545q0 -151 51 -223t162 -72q135 0 205 94v746h231v-1018h-213l-10 76q-46 -44 -110 -70t-134 -26q-413 0 -413 477zM313 1221v213h183v-213h-183zM639 1221v213h182v-213h-182z" />
<glyph unicode="&#xfd;" horiz-adv-x="1085" d="M8 1018h258l279 -686l272 686h258l-633 -1514h-239l229 557zM350 1204v131l383 189v-193z" />
<glyph unicode="&#xfe;" horiz-adv-x="1181" d="M123 -496v2032h231v-588q114 88 267 88q117 0 213 -42.5t158 -115t95 -167.5t33 -203t-33 -203t-95 -167.5t-159 -115t-217 -42.5q-158 0 -262 90v-566h-231zM342 508q0 -156 63.5 -247t194.5 -91q134 0 208.5 92.5t74.5 245.5q0 151 -74.5 241.5t-208.5 90.5 q-131 0 -194.5 -89t-63.5 -243z" />
<glyph unicode="&#xff;" horiz-adv-x="1085" d="M8 1018h258l279 -686l272 686h258l-633 -1514h-239l229 557zM287 1221v213h182v-213h-182zM612 1221v213h183v-213h-183z" />
<glyph unicode="&#x152;" horiz-adv-x="2185" d="M76 717q0 223 90.5 393t249.5 261t362 91q251 0 457 -159v131h858v-230h-614v-342h473v-229h-473v-404h632v-229h-876v131q-207 -160 -457 -160q-152 0 -281.5 53.5t-222.5 149.5t-145.5 236t-52.5 307zM338 717q0 -113 27.5 -206.5t81.5 -163.5t138.5 -109t192.5 -39 q143 0 244 68.5t149 183.5t48 266t-48 266t-149 183.5t-244 68.5q-108 0 -192.5 -39t-138.5 -109t-81.5 -163.5t-27.5 -206.5z" />
<glyph unicode="&#x153;" horiz-adv-x="1837" d="M59 510q0 109 35 204.5t99.5 167t163 113t218.5 41.5q122 0 225 -47t163 -131q61 85 158.5 131.5t211.5 46.5q197 0 322 -119t125 -317q0 -62 -15 -129h-673q6 -67 28 -120t53 -86t71 -55t79 -31t80 -9q74 0 161.5 23t153.5 57l15 -197q-142 -73 -332 -73 q-302 0 -432 182q-60 -86 -164 -134t-232 -48q-157 0 -275.5 72.5t-178.5 192t-60 265.5zM297 508q0 -155 72.5 -244.5t205.5 -89.5q130 0 202.5 93t72.5 243q0 149 -73.5 239.5t-201.5 90.5q-132 0 -205 -89.5t-73 -242.5zM1098 629h446q-3 89 -55 150t-150 61 q-99 0 -159.5 -55t-81.5 -156z" />
<glyph unicode="&#x178;" horiz-adv-x="1206" d="M-12 1434h256l358 -576l359 576h256l-492 -791v-643h-244v643zM356 1636v213h183v-213h-183zM682 1636v213h182v-213h-182z" />
<glyph unicode="&#x2c6;" horiz-adv-x="913" d="M156 1210v127l301 195l301 -195v-127l-301 152z" />
<glyph unicode="&#x2dc;" horiz-adv-x="1081" d="M166 1255q14 95 86.5 148t155.5 53q47 0 95 -22.5t89 -45t72 -22.5q44 0 77.5 29t46.5 69l130 -32q-18 -87 -81.5 -146t-154.5 -59q-53 0 -140.5 46t-121.5 46q-86 0 -115 -98z" />
<glyph unicode="&#x2000;" horiz-adv-x="981" />
<glyph unicode="&#x2001;" horiz-adv-x="1962" />
<glyph unicode="&#x2002;" horiz-adv-x="981" />
<glyph unicode="&#x2003;" horiz-adv-x="1962" />
<glyph unicode="&#x2004;" horiz-adv-x="654" />
<glyph unicode="&#x2005;" horiz-adv-x="490" />
<glyph unicode="&#x2006;" horiz-adv-x="327" />
<glyph unicode="&#x2007;" horiz-adv-x="327" />
<glyph unicode="&#x2008;" horiz-adv-x="245" />
<glyph unicode="&#x2009;" horiz-adv-x="392" />
<glyph unicode="&#x200a;" horiz-adv-x="109" />
<glyph unicode="&#x2010;" horiz-adv-x="860" d="M113 475v189h635v-189h-635z" />
<glyph unicode="&#x2011;" horiz-adv-x="860" d="M113 475v189h635v-189h-635z" />
<glyph unicode="&#x2012;" horiz-adv-x="860" d="M113 475v189h635v-189h-635z" />
<glyph unicode="&#x2013;" horiz-adv-x="1019" d="M113 475v189h794v-189h-794z" />
<glyph unicode="&#x2014;" horiz-adv-x="1208" d="M113 475v189h983v-189h-983z" />
<glyph unicode="&#x2018;" horiz-adv-x="413" d="M88 1073v238l188 225l52 -29l-70 -176l68 -20v-238h-238z" />
<glyph unicode="&#x2019;" horiz-adv-x="378" d="M84 1102l68 176l-68 20v238h240v-238l-189 -225z" />
<glyph unicode="&#x201a;" horiz-adv-x="464" d="M113 0v238h239v-238l-188 -225l-51 28l67 177z" />
<glyph unicode="&#x201c;" horiz-adv-x="843" d="M88 1073v238l188 225l52 -29l-70 -176l68 -20v-238h-238zM518 1073v238l189 225l51 -29l-70 -176l68 -20v-238h-238z" />
<glyph unicode="&#x201d;" horiz-adv-x="808" d="M84 1102l68 176l-68 20v238h240v-238l-189 -225zM514 1102l68 176l-68 20v238h240v-238l-189 -225z" />
<glyph unicode="&#x201e;" horiz-adv-x="935" d="M113 0v238h239v-238l-188 -225l-51 28l67 177zM584 0v238h239v-238l-188 -225l-51 28l67 177z" />
<glyph unicode="&#x2022;" horiz-adv-x="618" d="M86 569q0 92 65.5 158t157.5 66t157.5 -66t65.5 -158t-65.5 -157.5t-157.5 -65.5t-157.5 65.5t-65.5 157.5z" />
<glyph unicode="&#x2026;" horiz-adv-x="1425" d="M113 0v238h233v-238h-233zM596 0v238h233v-238h-233zM1079 0v238h234v-238h-234z" />
<glyph unicode="&#x202f;" horiz-adv-x="392" />
<glyph unicode="&#x2039;" horiz-adv-x="694" d="M25 582l315 422h276l-315 -422l315 -422h-276z" />
<glyph unicode="&#x203a;" horiz-adv-x="696" d="M80 160l315 422l-315 422h276l316 -422l-316 -422h-276z" />
<glyph unicode="&#x205f;" horiz-adv-x="490" />
<glyph unicode="&#x20ac;" horiz-adv-x="1441" d="M66 432l57 166h192q-6 62 -6 119v35h-184l55 155h150q57 228 227 360t404 132q211 0 368 -74l-29 -221q-97 40 -173 60t-166 20q-144 0 -235.5 -72.5t-131.5 -204.5h518l-57 -155h-488v-35q0 -65 11 -119h493l-57 -166h-383q104 -182 330 -182q90 0 166 20t173 60 l29 -221q-157 -74 -368 -74q-208 0 -368 105t-235 292h-292z" />
<glyph unicode="&#x2122;" horiz-adv-x="1505" d="M63 1292v142h562l-17 -142h-196v-602h-146v602h-203zM625 690l100 744h88l197 -324l192 324h90l101 -744h-152l-57 469l-166 -276h-21l-163 278l-60 -471h-149z" />
<glyph unicode="&#x25fc;" horiz-adv-x="1013" d="M0 0v1014h1014v-1014h-1014z" />
</font>
</defs>
</svg>
