<?xml version="1.0" standalone="no"?>
<!DOCTYPE svg PUBLIC "-//W3C//DTD SVG 1.1//EN" "http://www.w3.org/Graphics/SVG/1.1/DTD/svg11.dtd" >
<svg xmlns="http://www.w3.org/2000/svg">
<metadata></metadata>
<defs>
<font id="cabinsemibold_italic" horiz-adv-x="1222" >
<font-face units-per-em="2048" ascent="1638" descent="-410" />
<missing-glyph horiz-adv-x="460" />
<glyph horiz-adv-x="2048" />
<glyph horiz-adv-x="2048" />
<glyph unicode="&#xd;" horiz-adv-x="2048" />
<glyph unicode=" "  horiz-adv-x="460" />
<glyph unicode="&#x09;" horiz-adv-x="460" />
<glyph unicode="&#xa0;" horiz-adv-x="460" />
<glyph unicode="!" horiz-adv-x="501" d="M29 0l41 229h231l-41 -229h-231zM137 410l158 1126h240l-238 -1126h-160z" />
<glyph unicode="&#x22;" horiz-adv-x="786" d="M174 922l70 614h233l-147 -614h-156zM563 922l72 614h233l-147 -614h-158z" />
<glyph unicode="#" horiz-adv-x="1378" d="M20 -23l244 459h-227l123 205h217l110 211h-235l96 192h244l209 390h180l-207 -390h221l209 390h180l-208 -390h215l-101 -192h-219l-110 -211h241l-127 -205h-227l-244 -459h-180l242 459h-220l-247 -459h-179zM555 641h223l115 211h-223z" />
<glyph unicode="$" horiz-adv-x="1024" d="M39 244l74 248q48 -53 135.5 -89t204.5 -36q110 0 165.5 30.5t55.5 100.5q0 39 -29 69t-76 51t-103.5 40t-112.5 42.5t-103 52.5t-76 75.5t-29 105.5q0 55 22.5 110.5t68.5 108.5t130.5 91.5t194.5 49.5l12 238h203l-74 -238q91 -6 173.5 -28.5t119.5 -48.5l-59 -222 q-181 105 -313 105q-238 0 -238 -119q0 -35 30.5 -61.5t78.5 -44.5t106.5 -35.5t117.5 -42t107 -56.5t78.5 -85.5t30.5 -123.5q0 -37 -7 -74.5t-34 -88t-71 -89.5t-126 -71.5t-192 -42.5l-10 -232h-203l71 230q-221 12 -323 80z" />
<glyph unicode="%" horiz-adv-x="1642" d="M145 971q0 207 112 339t265 132q106 0 169 -77t63 -210q0 -204 -107.5 -337.5t-267.5 -133.5q-109 0 -171.5 77.5t-62.5 209.5zM184 -25l1069 1459h197l-1069 -1459h-197zM297 987q0 -79 29 -121.5t77 -42.5q86 0 143.5 85t57.5 229q0 81 -31 126.5t-77 45.5 q-74 0 -136.5 -88.5t-62.5 -233.5zM928 266q0 206 112 339.5t263 133.5q108 0 170.5 -77.5t62.5 -212.5q0 -203 -107.5 -336t-269.5 -133q-108 0 -169.5 76.5t-61.5 209.5zM1079 281q0 -83 28 -124.5t79 -41.5q86 0 143 86t57 233q0 83 -30 127.5t-78 44.5 q-76 0 -137.5 -88.5t-61.5 -236.5z" />
<glyph unicode="&#x26;" horiz-adv-x="1210" d="M20 281q0 75 24 142t71.5 125.5t98 104.5t122.5 99q-88 169 -88 299q0 88 39.5 162.5t104 123t144.5 76t164 27.5q128 0 195.5 -63t67.5 -173q0 -61 -22.5 -119.5t-54.5 -101.5t-85 -89.5t-93.5 -75.5t-101.5 -68l217 -351q32 78 82 322h221q-49 -293 -182 -488l158 -233 h-268l-50 78q-154 -127 -372 -127q-197 0 -294.5 92t-97.5 238zM266 315q0 -83 47 -134.5t156 -51.5q131 0 223 86l-268 408q-158 -147 -158 -308zM477 1059q0 -88 53 -191q62 47 89.5 70t65 62t52.5 75.5t15 79.5q0 53 -24.5 76.5t-72.5 23.5q-75 0 -126.5 -52t-51.5 -144z " />
<glyph unicode="'" horiz-adv-x="399" d="M174 922l70 614h235l-145 -614h-160z" />
<glyph unicode="(" horiz-adv-x="559" d="M59 270q0 355 94.5 662t307.5 604h213q-73 -101 -129.5 -194.5t-112.5 -212t-92.5 -237.5t-59 -264t-22.5 -298q0 -343 94 -609h-211q-82 226 -82 549z" />
<glyph unicode=")" horiz-adv-x="559" d="M-104 -279q92 128 160 249t128.5 271t92.5 323.5t32 363.5q0 342 -94 608h213q80 -220 80 -549q0 -357 -93.5 -663.5t-305.5 -602.5h-213z" />
<glyph unicode="*" horiz-adv-x="876" d="M186 1278l113 141l223 -207l-12 322h176l-121 -322l297 207l62 -143l-326 -111l195 -200l-144 -111l-117 276l-219 -282l-102 110l266 203z" />
<glyph unicode="+" horiz-adv-x="899" d="M70 475l32 189h267l47 262h178l-47 -262h268l-33 -189h-266l-49 -266h-178l47 266h-266z" />
<glyph unicode="," horiz-adv-x="466" d="M-25 -197l97 177l-62 20l43 238h234l-41 -238l-226 -225z" />
<glyph unicode="-" horiz-adv-x="829" d="M92 475l35 189h596l-33 -189h-598z" />
<glyph unicode="." horiz-adv-x="466" d="M12 0l41 238h234l-43 -238h-232z" />
<glyph unicode="/" horiz-adv-x="1073" d="M-94 -174l991 1608h252l-989 -1608h-254z" />
<glyph unicode="0" horiz-adv-x="1400" d="M131 541q0 190 61.5 363t162.5 294t232.5 192.5t268.5 71.5q208 0 328.5 -158t120.5 -432q0 -246 -96 -453.5t-261.5 -327.5t-361.5 -120q-219 0 -337 152.5t-118 417.5zM375 563q0 -375 250 -375q186 0 314 183t128 473q0 207 -67.5 305t-178.5 98q-62 0 -125 -29.5 t-120.5 -88.5t-102.5 -139.5t-71.5 -191.5t-26.5 -235z" />
<glyph unicode="1" horiz-adv-x="735" d="M184 0l191 1079q-90 -60 -187 -78l15 209q69 18 160.5 86t132.5 138h184l-254 -1434h-242z" />
<glyph unicode="2" horiz-adv-x="1048" d="M-4 0q240 289 385 474t223 304.5t102.5 183t24.5 121.5q0 84 -41.5 128t-122.5 44q-178 0 -344 -211l8 218q21 27 57 57.5t89.5 64.5t127.5 56t152 22q69 0 123.5 -18.5t89.5 -48.5t57.5 -71.5t32 -85t9.5 -91.5q0 -153 -112 -351t-402 -567h405l-41 -229h-823z" />
<glyph unicode="3" horiz-adv-x="1073" d="M-8 82l98 221q39 -45 116.5 -74.5t166.5 -29.5q61 0 114 15.5t96.5 48t69 89.5t25.5 133q0 95 -47.5 148t-167.5 53h-172l55 188h86q87 0 149.5 20t94.5 55t45.5 73.5t13.5 83.5q0 72 -39 110.5t-135 38.5q-70 0 -138.5 -19.5t-113.5 -53.5l-8 186q43 36 132.5 65 t197.5 29q82 0 145.5 -19t102 -50t63 -73.5t34 -85t9.5 -89.5q0 -210 -192 -350q129 -87 129 -285q0 -126 -51.5 -230.5t-135.5 -170.5t-186.5 -102t-208.5 -36q-120 0 -224.5 39.5t-123.5 71.5z" />
<glyph unicode="4" horiz-adv-x="1140" d="M-6 389l805 1045h200l-147 -844h164l-35 -201h-166l-67 -389h-242l69 389h-581zM360 590h250l80 459z" />
<glyph unicode="5" horiz-adv-x="1073" d="M20 76l95 221q43 -43 115 -71.5t151 -28.5q132 0 226.5 83t94.5 222q0 47 -13 80.5t-45.5 59.5t-92.5 39t-150 13h-202l217 740h616l-65 -230h-412l-86 -305q251 -5 363 -85.5t112 -262.5q0 -105 -34.5 -198t-93 -161.5t-134.5 -118.5t-161 -75t-171 -25 q-114 0 -220.5 37.5t-109.5 65.5z" />
<glyph unicode="6" horiz-adv-x="1116" d="M98 379q0 121 31 242.5t83 223.5t118.5 195t139.5 163.5t144.5 123t134 80t107.5 27.5l143 -95q-52 -12 -135 -61t-172 -123t-167 -179t-109 -210q84 96 248 96q154 0 247 -86.5t93 -249.5q0 -145 -72 -272t-201.5 -205t-284.5 -78q-348 0 -348 408zM330 381 q0 -99 52.5 -148t127.5 -49q107 0 186.5 94.5t79.5 206.5q0 74 -41 126.5t-131 52.5q-111 0 -192.5 -79.5t-81.5 -203.5z" />
<glyph unicode="7" horiz-adv-x="1009" d="M51 0l680 1204h-534l39 230h886l-817 -1434h-254z" />
<glyph unicode="8" horiz-adv-x="1189" d="M76 319q0 54 14 107t45 112t89.5 119.5t140.5 114.5q-89 96 -89 258q0 63 14.5 122t50 116t88.5 99.5t135.5 68.5t185.5 26q96 0 165 -22t107 -62.5t55 -89t17 -108.5q0 -112 -57.5 -201t-180.5 -188q85 -45 134.5 -127t49.5 -183q0 -86 -37 -174t-105 -164t-179.5 -124 t-245.5 -48q-104 0 -182.5 28.5t-124 78.5t-68 110.5t-22.5 130.5zM313 356q0 -92 51.5 -139t145.5 -47q127 0 208 79t81 197q0 94 -51 154.5t-134 83.5q-55 -10 -107 -37t-96 -67.5t-71 -99t-27 -124.5zM489 1051q0 -134 140 -183q66 19 113.5 49.5t72.5 66.5t36 70.5 t11 71.5q0 140 -153 140q-59 0 -103.5 -19.5t-68.5 -51.5t-36 -68.5t-12 -75.5z" />
<glyph unicode="9" horiz-adv-x="1124" d="M152 903q0 110 43 212t116.5 178.5t179.5 122.5t224 46q346 0 346 -418q0 -165 -52.5 -328t-137 -289t-185 -224t-202 -150.5t-183.5 -52.5l-137 94q42 9 104 39t137 82.5t143.5 117t124 152t77.5 177.5q-43 -45 -126.5 -68t-134.5 -23q-156 0 -246.5 84.5t-90.5 247.5z M393 944q0 -46 14 -83t53 -64t99 -27q110 0 193.5 80.5t83.5 208.5q0 99 -51 144.5t-123 45.5q-77 0 -140.5 -47t-96 -116t-32.5 -142z" />
<glyph unicode=":" horiz-adv-x="462" d="M8 0l41 238h234l-41 -238h-234zM125 664l43 237h231l-41 -237h-233z" />
<glyph unicode=";" horiz-adv-x="493" d="M-20 -197l96 177l-62 20l43 238h234l-41 -238l-225 -225zM131 664l41 237h260l-43 -237h-258z" />
<glyph unicode="&#x3c;" horiz-adv-x="862" d="M57 582l486 422h272l-483 -422l336 -422h-275z" />
<glyph unicode="=" horiz-adv-x="983" d="M82 313l33 183h712l-30 -183h-715zM139 639l33 182h713l-31 -182h-715z" />
<glyph unicode="&#x3e;" horiz-adv-x="864" d="M41 160l483 422l-334 422h273l336 -422l-486 -422h-272z" />
<glyph unicode="?" horiz-adv-x="874" d="M174 0l41 229h234l-41 -229h-234zM203 1393q59 69 148.5 106t185.5 37q70 0 128 -20.5t97 -54t66 -78t39 -91t12 -94.5q0 -66 -28.5 -133.5t-72.5 -122.5t-96.5 -117.5t-100 -118t-84.5 -125t-48 -137.5l-7 -34h-159q8 80 14 104q13 75 55.5 149.5t92.5 134t98.5 119.5 t81 130t32.5 141q0 83 -45.5 125.5t-119.5 42.5q-78 0 -147 -39t-118 -96z" />
<glyph unicode="@" horiz-adv-x="1409" d="M47 238q0 180 76.5 347.5t199.5 286t282 190t321 71.5q191 0 296 -111t105 -303q0 -69 -13.5 -140.5t-42.5 -141t-70.5 -123.5t-102 -87.5t-131.5 -33.5q-35 0 -52.5 14t-17.5 55q0 55 24.5 121t80 184.5t90.5 208.5q-32 46 -86 77.5t-127 31.5q-97 0 -205 -57.5 t-194.5 -146.5t-143.5 -204t-57 -221q0 -76 34.5 -125t106.5 -49q90 0 200 63.5t189 173.5q-1 -5 -7.5 -23.5t-11 -40t-4.5 -44.5q0 -51 21 -88t67 -37q52 0 134.5 40t138.5 91q-123 -177 -313.5 -286t-387.5 -109q-189 0 -294 110t-105 306zM442 313q0 86 45.5 170.5 t112 143.5t140.5 96t132 37q72 0 80 -45q-37 -108 -118 -224.5t-172.5 -195t-153.5 -78.5q-66 0 -66 96z" />
<glyph unicode="A" d="M-82 0l733 1434h232l227 -1434h-252l-53 358h-457l-178 -358h-252zM471 588h291l-62 477z" />
<glyph unicode="B" horiz-adv-x="1228" d="M55 0l252 1434h361q93 0 158.5 -6.5t125.5 -25t96 -51t57 -85.5t21 -127q0 -228 -174 -373q96 -46 138.5 -111t42.5 -180q0 -107 -35 -191.5t-91 -136.5t-131.5 -86t-150.5 -47.5t-154 -13.5h-516zM332 209h239q152 0 232 58t80 196q0 99 -48.5 145.5t-164.5 46.5h-258z M446 852h240q36 0 68 9t65.5 31.5t53.5 70t20 114.5q0 88 -37.5 118t-130.5 30h-213z" />
<glyph unicode="C" horiz-adv-x="1198" d="M90 586q0 149 42 285t117.5 242.5t176.5 185.5t225 121t256 42q99 0 198.5 -23.5t166.5 -60.5l-68 -227q-59 25 -97 39.5t-104.5 29.5t-128.5 15q-122 0 -222 -51.5t-163.5 -139.5t-98 -200.5t-34.5 -237.5q0 -190 82.5 -298.5t257.5 -108.5q134 0 355 84l-13 -228 q-82 -38 -187.5 -61t-203.5 -23q-258 0 -407.5 163t-149.5 452z" />
<glyph unicode="D" horiz-adv-x="1421" d="M55 0l252 1434h506q257 0 406 -154.5t149 -441.5q0 -183 -64 -340.5t-173 -266t-257 -170t-313 -61.5h-506zM338 227h264q118 0 214 47t158 128.5t95 187.5t33 227q0 190 -82 289.5t-246 99.5h-264z" />
<glyph unicode="E" horiz-adv-x="1114" d="M55 0l252 1434h862l-41 -230h-614l-59 -342h477l-41 -229h-477l-72 -404h635l-41 -229h-881z" />
<glyph unicode="F" horiz-adv-x="1038" d="M55 0l252 1434h832l-39 -230h-590l-61 -342h456l-41 -229h-456l-111 -633h-242z" />
<glyph unicode="G" horiz-adv-x="1308" d="M90 590q0 184 64.5 346.5t173.5 277.5t259.5 181.5t317.5 66.5q105 0 217 -23.5t178 -60.5l-65 -225q-77 36 -174.5 59t-183.5 23q-101 0 -187.5 -35t-147 -94.5t-103 -139.5t-63 -169t-20.5 -183q0 -196 88.5 -305.5t264.5 -109.5q94 0 192 28l51 287h-155l37 205h393 l-113 -639q-82 -44 -222.5 -76.5t-254.5 -32.5q-250 0 -398.5 165.5t-148.5 453.5z" />
<glyph unicode="H" horiz-adv-x="1454" d="M55 0l252 1434h242l-100 -570h649l100 570h242l-254 -1434h-240l111 633h-649l-111 -633h-242z" />
<glyph unicode="I" horiz-adv-x="563" d="M55 0l252 1434h242l-252 -1434h-242z" />
<glyph unicode="J" horiz-adv-x="563" d="M-147 -352l12 172h47q61 0 93 43t50 141l252 1430h242l-262 -1487q-26 -148 -122 -223.5t-245 -75.5h-67z" />
<glyph unicode="K" horiz-adv-x="1212" d="M55 0l252 1434h240l-252 -1434h-240zM479 758l592 676h270l-591 -676l340 -758h-271z" />
<glyph unicode="L" horiz-adv-x="993" d="M55 0l252 1434h242l-211 -1205h561l-41 -229h-803z" />
<glyph unicode="M" horiz-adv-x="1622" d="M-12 0l440 1434h211l199 -672l438 672h209l-66 -1434h-250l60 985l-469 -672l-232 672l-288 -985h-252z" />
<glyph unicode="N" horiz-adv-x="1388" d="M55 0l252 1434h242l412 -971l172 971h241l-254 -1434h-198l-443 1030l-182 -1030h-242z" />
<glyph unicode="O" horiz-adv-x="1501" d="M90 584q0 185 65 349t174 279.5t256.5 182.5t309.5 67q258 0 407.5 -163t149.5 -449q0 -185 -65 -349.5t-174 -280t-256.5 -182.5t-309.5 -67q-258 0 -407.5 163.5t-149.5 449.5zM356 604q0 -188 82.5 -296.5t247.5 -108.5q150 0 266 90t175 232.5t59 307.5 q0 189 -82.5 297.5t-247.5 108.5q-150 0 -266 -90.5t-175 -233t-59 -307.5z" />
<glyph unicode="P" horiz-adv-x="1175" d="M55 0l252 1434h387q109 0 183 -7.5t139.5 -30t102.5 -62.5t58 -104t21 -157q0 -94 -20.5 -175t-54.5 -140.5t-81 -107.5t-98 -79t-107.5 -51.5t-107.5 -29.5t-100 -9h-246l-86 -481h-242zM422 705h213q170 0 240.5 83.5t70.5 241.5q0 52 -8.5 85.5t-32 61t-70 40 t-118.5 12.5h-201z" />
<glyph unicode="Q" horiz-adv-x="1501" d="M90 586q0 184 65 348t174 279t256.5 182t309.5 67q258 0 407.5 -163.5t149.5 -440.5q0 -313 -219 -604l100 -102l-166 -164l-112 114q-186 -131 -412 -131q-254 0 -403.5 164.5t-149.5 450.5zM356 604q0 -189 82 -297t246 -108q123 0 209 59l-139 154l168 163l143 -157 q58 98 90.5 195.5t32.5 220.5q0 185 -82.5 293t-249.5 108q-151 0 -267 -90t-174.5 -232.5t-58.5 -308.5z" />
<glyph unicode="R" horiz-adv-x="1226" d="M55 0l252 1434h490q191 0 296 -79t105 -261q0 -169 -87 -291t-228 -199l200 -604h-252l-186 541h-254l-94 -541h-242zM432 768h191q317 0 317 279q0 95 -48.5 140.5t-180.5 45.5h-197z" />
<glyph unicode="S" horiz-adv-x="1144" d="M12 72l78 276q51 -62 154 -105.5t239 -43.5q132 0 209.5 48t77.5 148q0 33 -7.5 59.5t-26.5 49t-38.5 39.5t-55.5 35t-66 31t-80 32q-47 18 -69.5 27.5t-65.5 29.5t-65.5 36t-53 43t-46 55t-27 66.5t-11.5 82.5q0 61 19 124.5t62.5 128t107 115t162 82t216.5 31.5 q128 0 243 -33t169 -73l-68 -250q-106 65 -193.5 97t-177.5 32q-48 0 -95.5 -9.5t-91.5 -30t-71.5 -59t-27.5 -89.5q0 -32 12 -58t30 -44.5t51.5 -37t64 -30.5t79.5 -29h1l1 -1h1h1l1 -1h1l1 -1h1h1l1 -1h1h1q157 -57 223 -99q153 -99 160 -278v-18q0 -70 -18.5 -135.5 t-63 -129t-112 -110t-173 -75t-237.5 -28.5q-143 0 -257.5 29.5t-170.5 71.5z" />
<glyph unicode="T" horiz-adv-x="1150" d="M176 1204l41 230h1008l-41 -230h-383l-211 -1204h-242l211 1204h-383z" />
<glyph unicode="U" horiz-adv-x="1409" d="M131 430q0 91 16 182l146 822h239l-129 -732q-20 -114 -20 -210q2 -140 58 -216.5t192 -76.5q77 0 139.5 27t105 71.5t75.5 111.5t52.5 136.5t34.5 156.5l129 732h242l-145 -822q-54 -302 -224.5 -471.5t-447.5 -169.5q-230 0 -346.5 119.5t-116.5 339.5z" />
<glyph unicode="V" horiz-adv-x="1282" d="M147 1434h252l185 -1151l573 1151h250l-733 -1434h-291z" />
<glyph unicode="W" horiz-adv-x="1884" d="M182 1434h250l82 -1074l494 1065h172l127 -1044l450 1053h250l-647 -1434h-217l-121 1024l-483 -1024h-230z" />
<glyph unicode="X" horiz-adv-x="1226" d="M-94 0l592 735l-320 699h279l215 -533l393 533h276l-569 -707l340 -727h-276l-238 545l-418 -545h-274z" />
<glyph unicode="Y" horiz-adv-x="1200" d="M152 1434h256l233 -580l428 580h256l-604 -791l-115 -643h-241l112 643z" />
<glyph unicode="Z" horiz-adv-x="1077" d="M-80 0l842 1204h-543l41 230h940l-844 -1205h543l-39 -229h-940z" />
<glyph unicode="[" horiz-adv-x="657" d="M-14 -279l319 1815h496l-35 -197h-283l-252 -1419h285l-35 -199h-495z" />
<glyph unicode="\" horiz-adv-x="1060" d="M213 1434h252l422 -1608h-252z" />
<glyph unicode="]" horiz-adv-x="671" d="M-121 -279l41 230h281l241 1356h-284l41 229h495l-319 -1815h-496z" />
<glyph unicode="^" horiz-adv-x="985" d="M244 844l49 274l473 436l319 -436l-47 -274l-321 436z" />
<glyph unicode="_" horiz-adv-x="1085" d="M-150 -262l33 188h1080l-33 -188h-1080z" />
<glyph unicode="`" horiz-adv-x="583" d="M348 1331l33 193l328 -189l-23 -131z" />
<glyph unicode="a" horiz-adv-x="1169" d="M39 414q0 94 25.5 185t75.5 169.5t118 138.5t159.5 94.5t194.5 34.5q144 0 215 -88l33 70h211l-119 -705q-8 -44 -8 -77q0 -42 19.5 -54t78.5 -12l-55 -190q-139 0 -192 22.5t-86 103.5q-122 -126 -299 -126q-170 0 -270.5 121.5t-100.5 312.5zM281 432 q0 -119 49.5 -188.5t152.5 -69.5q74 0 131.5 37t90.5 98t50 132t17 147q0 252 -182 252q-134 0 -221.5 -119.5t-87.5 -288.5z" />
<glyph unicode="b" horiz-adv-x="1122" d="M16 0l271 1536h233l-104 -588q106 88 246 88q128 0 217 -59t129.5 -154.5t40.5 -218.5q0 -121 -41.5 -233.5t-114 -199.5t-180 -139t-232.5 -52q-80 0 -131 24.5t-96 75.5l-21 -80h-217zM315 420q0 -246 183 -246q89 0 161 57t111 150t39 201q0 119 -50 188.5t-151 69.5 q-72 0 -130 -36.5t-92.5 -97t-52.5 -134t-18 -152.5z" />
<glyph unicode="c" horiz-adv-x="884" d="M41 410q0 122 39 234t111.5 199.5t186 140t251.5 52.5q165 0 264 -71l-59 -201q-105 76 -226 76q-150 0 -237.5 -116t-87.5 -290q0 -260 209 -260q117 0 253 76l-14 -195q-121 -75 -285 -75q-106 0 -185.5 33.5t-126.5 93t-70 135.5t-23 168z" />
<glyph unicode="d" horiz-adv-x="1124" d="M39 410q0 95 25.5 186.5t75.5 171t118 139.5t159.5 94.5t194.5 34.5q143 0 217 -88l103 588h233l-270 -1536h-219l8 80q-63 -52 -122 -76t-138 -24q-184 0 -284.5 120.5t-100.5 309.5zM283 432q0 -119 49.5 -188.5t150.5 -69.5q74 0 131.5 37t91.5 98t51 132.5t17 146.5 q0 252 -184 252q-134 0 -220.5 -119.5t-86.5 -288.5z" />
<glyph unicode="e" horiz-adv-x="980" d="M39 418q0 118 41 229.5t113 197.5t180 138.5t233 52.5q155 0 239.5 -77t84.5 -207q0 -161 -131.5 -249.5t-352.5 -88.5q-95 0 -163 14q6 -135 73 -194.5t170 -59.5q66 0 154 22t154 54l-23 -193q-158 -77 -334 -77q-216 0 -327 121.5t-111 316.5zM303 580q50 -13 111 -13 q169 0 242 49t73 119q0 32 -13.5 54t-36 32.5t-43 14.5t-42.5 4q-104 0 -180 -76.5t-111 -183.5z" />
<glyph unicode="f" horiz-adv-x="669" d="M74 0l145 829h-139l55 189h117l45 246q10 58 30 103.5t56 85.5t95 61.5t138 21.5q47 0 172 -16l-57 -195q-52 12 -88 12q-67 0 -89.5 -34t-43.5 -152l-25 -133h217l-32 -189h-217l-146 -829h-233z" />
<glyph unicode="g" horiz-adv-x="980" d="M-90 -246q0 78 51.5 146.5t151.5 117.5q-66 50 -66 121q0 98 125 164q-98 98 -98 264q0 91 33.5 175.5t92.5 150t148 104.5t193 39q133 0 213 -65q84 49 217 49h55l-41 -150h-84q-21 0 -59 -6q28 -73 28 -162q0 -121 -55.5 -227t-163.5 -174t-245 -68q-53 0 -107 13 q-31 -21 -31 -47q0 -32 49.5 -48t180.5 -38q41 -6 71.5 -12.5t74 -19.5t74.5 -32t60 -46t44.5 -66.5t15.5 -88.5q0 -153 -142 -256.5t-379 -103.5q-107 0 -188 23t-127.5 61.5t-69 84.5t-22.5 97zM109 -207q0 -63 59 -100t166 -37q122 0 205.5 45.5t83.5 110.5 q0 35 -24.5 60t-68.5 38.5t-85.5 21.5t-94.5 15.5t-78 13.5q-69 -22 -116 -66t-47 -102zM285 584q0 -178 149 -178q102 0 163.5 82t61.5 196q0 176 -151 176q-102 0 -162.5 -80.5t-60.5 -195.5z" />
<glyph unicode="h" horiz-adv-x="1083" d="M16 0l271 1536h235l-104 -590q63 49 116.5 69.5t122.5 20.5q160 0 240 -91t80 -251q0 -35 -17.5 -146t-93.5 -548h-233q106 613 106 666q0 91 -36.5 132.5t-116.5 41.5q-118 0 -205 -101l-131 -739h-234z" />
<glyph unicode="i" horiz-adv-x="481" d="M18 0l179 1018h233l-178 -1018h-234zM229 1194l41 240h236l-43 -240h-234z" />
<glyph unicode="j" horiz-adv-x="481" d="M-168 -496l12 189q43 2 64 6.5t39 24t27 51.5t20 94l203 1149h233l-219 -1243q-22 -125 -96 -194.5t-197 -72.5zM227 1194l43 240h234l-43 -240h-234z" />
<glyph unicode="k" horiz-adv-x="952" d="M16 0l271 1536h235l-168 -948l385 430h267l-443 -483l262 -535h-264l-227 471l-84 -471h-234z" />
<glyph unicode="l" horiz-adv-x="522" d="M51 178q0 26 234 1358h233q-223 -1262 -223 -1298q0 -44 22.5 -56t79.5 -12l-57 -190h-84q-104 0 -154.5 54t-50.5 144z" />
<glyph unicode="m" horiz-adv-x="1693" d="M18 0l179 1018h190v-88q116 106 270 106q56 0 105 -15.5t94 -55t68 -99.5q40 69 135 119.5t217 50.5q155 0 233 -86t78 -239q0 -39 -18 -155.5t-94 -555.5h-234q79 453 95 550.5t16 123.5q0 91 -35.5 128.5t-108.5 37.5q-197 0 -237 -224l-109 -616h-231q107 614 111 658 q1 14 1 26q0 156 -157 156q-124 0 -203 -99l-133 -741h-232z" />
<glyph unicode="n" horiz-adv-x="1087" d="M18 0l179 1018h202l7 -76q60 49 119 71.5t134 22.5q160 0 241 -89.5t81 -250.5q0 -70 -113 -696h-233q108 619 108 666q0 91 -36.5 132.5t-116.5 41.5q-122 0 -209 -101l-131 -739h-232z" />
<glyph unicode="o" horiz-adv-x="1103" d="M39 416q0 121 43.5 233.5t119.5 198t186 137t235 51.5q198 0 303.5 -123t105.5 -313q0 -121 -43.5 -233.5t-119 -198t-185.5 -137t-235 -51.5q-197 0 -303.5 122.5t-106.5 313.5zM279 434q0 -125 51 -192.5t151 -67.5q91 0 163 56t110.5 149t38.5 203q0 125 -52 191.5 t-151 66.5q-136 0 -223.5 -118t-87.5 -288z" />
<glyph unicode="p" horiz-adv-x="1124" d="M-70 -496l267 1514h200l6 -86q63 53 123 78.5t140 25.5q126 0 214.5 -59.5t129.5 -155.5t41 -219q0 -160 -68.5 -301t-200 -231t-297.5 -90q-77 0 -128.5 22.5t-94.5 71.5l-98 -570h-234zM317 422q0 -248 183 -248q135 0 223 121t88 289q0 119 -50 187.5t-151 68.5 q-73 0 -131 -36.5t-92.5 -97.5t-52 -133.5t-17.5 -150.5z" />
<glyph unicode="q" horiz-adv-x="1124" d="M39 408q0 121 41 234t113 200.5t179.5 140.5t231.5 53q83 0 135.5 -25.5t96.5 -78.5l34 86h203l-266 -1514h-236l101 570q-117 -94 -248 -94q-187 0 -286 119.5t-99 308.5zM279 434q0 -121 50 -190.5t152 -69.5q72 0 129.5 36.5t92 97.5t52 133.5t17.5 150.5 q0 248 -180 248q-91 0 -163 -56t-111 -148.5t-39 -201.5z" />
<glyph unicode="r" horiz-adv-x="677" d="M16 0l181 1018h215l-15 -127q56 65 133 107t156 42h59l-86 -227h-86q-57 0 -113 -33t-85 -78l-125 -702h-234z" />
<glyph unicode="s" horiz-adv-x="837" d="M-23 59l56 205q44 -39 123 -70.5t159 -31.5q90 0 130 40.5t40 92.5q0 24 -9 43.5t-21 31.5t-35.5 24.5t-40 19t-47.5 16.5q-46 16 -70 25t-60.5 30t-55.5 43t-33.5 59t-14.5 83q0 47 12.5 95t43.5 97.5t76.5 87.5t118 62t161.5 24q91 0 170.5 -22t116.5 -51l-56 -201 q-34 40 -102 71t-141 31q-77 0 -131 -34t-54 -99q0 -18 4 -33t16.5 -27.5t21 -20t32 -17.5t34 -14t43 -14.5t44.5 -14.5q50 -18 82 -34t66.5 -44.5t51.5 -73t17 -104.5q0 -65 -20.5 -123.5t-67 -112.5t-135 -86t-209.5 -32q-109 0 -192.5 23.5t-123.5 55.5z" />
<glyph unicode="t" horiz-adv-x="673" d="M78 829l53 189h119l43 231l235 25l-45 -256h215l-32 -189h-215q-99 -560 -99 -589q0 -47 26 -58.5t107 -11.5h64l-55 -190h-168q-110 0 -163.5 58t-53.5 148q0 34 108 643h-139z" />
<glyph unicode="u" horiz-adv-x="1079" d="M72 313q0 68 110 705h234q-107 -609 -107 -664q0 -176 154 -176q119 0 201 94l131 746h233l-178 -1018h-219l8 76q-64 -50 -120.5 -73t-133.5 -23q-155 0 -234 86.5t-79 246.5z" />
<glyph unicode="v" horiz-adv-x="964" d="M78 1018h231l109 -737l370 737h232l-549 -1018h-203z" />
<glyph unicode="w" horiz-adv-x="1415" d="M100 1018h232l37 -742l309 717h199l55 -717l299 742h229l-461 -1018h-198l-76 690l-322 -690h-200z" />
<glyph unicode="x" horiz-adv-x="962" d="M-76 0l402 510l-222 508h277l117 -348l231 348h279l-412 -514l231 -504h-276l-123 330l-227 -330h-277z" />
<glyph unicode="y" horiz-adv-x="1036" d="M-10 -496l313 557l-231 957h258l131 -686l373 686h260l-869 -1514h-235z" />
<glyph unicode="z" horiz-adv-x="929" d="M-55 0l577 817h-416l37 201h809l-575 -817h411l-34 -201h-809z" />
<glyph unicode="{" horiz-adv-x="626" d="M41 629q96 51 141.5 115t67.5 180q8 47 19 146t18 138q29 163 138.5 244t338.5 84l-35 -199q-45 0 -77 -2.5t-59.5 -11t-44.5 -16t-33 -29t-24.5 -38t-18.5 -54.5t-16 -68t-16 -88q-5 -27 -12 -85t-12 -85q-14 -76 -44.5 -130.5t-99.5 -100.5q72 -59 72 -158 q0 -49 -17.5 -109.5t-35 -133.5t-17.5 -154q0 -91 42.5 -121.5t162.5 -32.5l-35 -199q-194 3 -281 67t-87 194q0 59 40 209t40 223q0 143 -115 215z" />
<glyph unicode="|" horiz-adv-x="468" d="M-43 -430l346 1966h191l-347 -1966h-190z" />
<glyph unicode="}" horiz-adv-x="624" d="M-129 -279l35 199q61 1 99.5 4.5t69 20.5t46.5 32t31.5 59t23 79t21.5 114q6 35 13.5 96.5t12.5 88.5q12 71 42 121t100 94q-70 59 -70 168q0 37 16.5 94t33.5 133t17 160q0 91 -42 122t-162 31l32 199q197 -1 284 -67t87 -193q0 -59 -41 -208.5t-41 -223.5t28 -125 t87 -90q-97 -51 -141.5 -116.5t-65.5 -176.5q-8 -48 -19 -148t-18 -139q-30 -165 -142 -245t-337 -83z" />
<glyph unicode="~" horiz-adv-x="929" d="M68 391q27 95 107.5 148t164.5 53q48 0 86.5 -22.5t69.5 -45t61 -22.5q42 0 78.5 29.5t50.5 68.5l133 -35q-28 -85 -99 -144t-163 -59q-34 0 -67.5 14.5t-56.5 32t-52 32t-53 14.5q-73 0 -115 -99z" />
<glyph unicode="&#xa1;" horiz-adv-x="497" d="M-68 -512l240 1126h158l-158 -1126h-240zM166 795l41 229h231l-39 -229h-233z" />
<glyph unicode="&#xa2;" horiz-adv-x="931" d="M82 608q0 153 59.5 288.5t177 229.5t271.5 115l16 291h178l-84 -289q144 -9 232 -72l-58 -198q-104 78 -233 78q-138 0 -226.5 -122.5t-88.5 -295.5q0 -116 51 -187t145 -71q127 0 262 78l-14 -199q-109 -65 -252 -74l-14 -246h-180l73 250q-153 22 -234 139.5t-81 284.5 z" />
<glyph unicode="&#xa3;" horiz-adv-x="1021" d="M-39 0q130 134 209 290.5t133 356.5h-174l66 158h145l39 225q12 69 26.5 121t44.5 110.5t70.5 96.5t106 63t149.5 25q235 0 248 -201l-109 -108q-5 39 -11 61.5t-18.5 47t-36 35.5t-58.5 11q-40 0 -70.5 -16.5t-50 -41t-35.5 -68t-25 -81.5t-20 -98l-31 -182h354 l-63 -158h-328q-30 -130 -68.5 -230.5t-107.5 -223.5h475l-33 -193h-827z" />
<glyph unicode="&#xa4;" horiz-adv-x="1241" d="M39 131l176 203q-74 112 -74 284q0 269 211 474l-108 202l127 86l106 -204q120 63 256 63q140 0 232 -65l182 206l94 -86l-176 -204q72 -113 72 -285q0 -263 -207 -473l106 -201l-125 -86l-108 205q-116 -64 -256 -64t-234 64l-178 -205zM383 631q0 -118 51 -190t146 -72 q93 0 166.5 58.5t113 155.5t39.5 212q0 118 -51.5 190t-147.5 72q-141 0 -229 -124t-88 -302z" />
<glyph unicode="&#xa5;" horiz-adv-x="1370" d="M182 287l70 133h274l21 127h-320l70 129h242l-338 758h250l272 -586l477 586h250l-606 -758h284l-71 -129h-269l-22 -127h317l-73 -133h-267l-51 -287h-241l51 287h-320z" />
<glyph unicode="&#xa6;" horiz-adv-x="456" d="M-39 -430l141 803h170l-143 -803h-168zM141 596l166 940h170l-166 -940h-170z" />
<glyph unicode="&#xa7;" horiz-adv-x="911" d="M14 -90l52 188q48 -42 112 -70t119 -28q39 0 73.5 8.5t64.5 26t47.5 50t17.5 75.5q0 40 -22.5 70.5t-58 50.5t-79 38.5t-87 42t-79 54.5t-58 82t-22.5 118q0 126 58 223.5t170 141.5q-54 63 -54 162q0 49 11.5 99.5t40 104.5t72 95t114 67.5t158.5 26.5q79 0 156 -26 t106 -58l-52 -188q-50 42 -112.5 70t-118.5 28q-82 0 -141.5 -40t-59.5 -118q0 -39 22.5 -69t58 -50.5t78.5 -40t86 -44t78.5 -56t58 -83t22.5 -118.5q0 -75 -21.5 -141.5t-75 -125.5t-133.5 -93q54 -66 54 -164q0 -49 -11.5 -99.5t-40.5 -104t-72.5 -95t-114 -68 t-157.5 -26.5q-78 0 -155.5 25.5t-104.5 58.5zM283 694q0 -133 221 -207q47 9 100 65.5t53 117.5q0 35 -15 63.5t-36 46.5t-54 34t-56.5 23.5t-57.5 16.5q-47 0 -101 -44.5t-54 -115.5z" />
<glyph unicode="&#xa8;" horiz-adv-x="813" d="M383 1221l37 213h182l-37 -213h-182zM678 1221l37 213h184l-39 -213h-182z" />
<glyph unicode="&#xa9;" horiz-adv-x="1406" d="M115 623q0 171 58.5 320.5t158 253t233 163t281.5 59.5q226 0 360.5 -148.5t134.5 -396.5q0 -171 -58.5 -321t-158 -254t-234 -163.5t-282.5 -59.5q-224 0 -358.5 149.5t-134.5 397.5zM260 627q0 -192 94 -309t279 -117q133 0 241 54t177 146.5t106 212t37 252.5 q0 193 -93.5 309.5t-275.5 116.5q-134 0 -242.5 -54t-178 -146t-107 -211.5t-37.5 -253.5zM422 678q0 181 111.5 299.5t271.5 118.5q101 0 186 -45l-45 -158q-99 45 -170 45q-83 0 -132.5 -69t-49.5 -173q0 -67 30 -107t87 -40q76 0 182 49l-8 -156q-93 -49 -203 -49 q-119 0 -189.5 77.5t-70.5 207.5z" />
<glyph unicode="&#xaa;" horiz-adv-x="710" d="M143 1036q0 56 30.5 101t73 70.5t95.5 43t89 23.5t63 8q-8 31 -22 42t-48 11q-30 0 -55.5 -4.5t-65.5 -15.5t-57 -15l18 154q129 41 242 41q76 0 132 -37.5t56 -99.5q0 -55 -35 -250q-4 -14 -4 -35q2 -24 25 -24h29l-35 -160h-94q-31 0 -67 15t-48 32q-26 -23 -81.5 -35 t-109.5 -12q-55 0 -93 38t-38 109zM354 1063q0 -17 12 -30t35 -13q30 0 50 10l22 127q-6 0 -22.5 -4t-39.5 -13.5t-40 -29.5t-17 -47z" />
<glyph unicode="&#xab;" horiz-adv-x="1183" d="M31 582l366 422h277l-367 -422l217 -422h-276zM532 582l367 422h277l-367 -422l217 -422h-276z" />
<glyph unicode="&#xac;" horiz-adv-x="1153" d="M131 662l31 169h887l-93 -522h-174l60 353h-711z" />
<glyph unicode="&#xad;" horiz-adv-x="829" d="M92 471l35 193h596l-33 -193h-598z" />
<glyph unicode="&#xae;" horiz-adv-x="1406" d="M115 623q0 171 58.5 320.5t158 253t233 163t281.5 59.5q226 0 360.5 -148.5t134.5 -396.5q0 -171 -58.5 -321t-158 -254t-234 -163.5t-282.5 -59.5q-224 0 -358.5 149.5t-134.5 397.5zM260 629q0 -193 94.5 -309.5t278.5 -116.5q106 0 197 35.5t157 97.5t113.5 146 t70.5 182t23 204q0 191 -93.5 306.5t-275.5 115.5q-133 0 -241.5 -53.5t-178.5 -145t-107.5 -210.5t-37.5 -252zM428 420l121 678h244q194 0 194 -168q0 -78 -38 -137t-91 -93l94 -280h-174l-80 233h-63l-39 -233h-168zM662 803h49q56 0 80 25t24 77q0 27 -16 41.5t-56 14.5 h-53z" />
<glyph unicode="&#xb0;" horiz-adv-x="651" d="M178 1214q0 134 88 233t221 99q102 0 157.5 -64.5t55.5 -164.5q0 -135 -87.5 -232.5t-223.5 -97.5q-99 0 -155 64t-56 163zM307 1219q0 -64 25.5 -104t73.5 -40q74 0 120.5 72t46.5 168q0 63 -26 103t-76 40q-69 0 -116.5 -71.5t-47.5 -167.5z" />
<glyph unicode="&#xb1;" horiz-adv-x="968" d="M37 70l31 174h714l-32 -174h-713zM137 645l33 176h268l47 269h177l-48 -269h269l-31 -176h-268l-49 -272h-177l50 272h-271z" />
<glyph unicode="&#xb2;" horiz-adv-x="608" d="M51 655q175 204 263.5 318.5t114.5 166.5t26 95q0 70 -62 70q-35 0 -70 -17t-61.5 -42t-43 -44.5t-25.5 -34.5l6 166q36 47 102.5 80t149.5 33q95 0 136.5 -50t41.5 -118q0 -78 -54 -176.5t-180 -261.5h187l-35 -185h-496z" />
<glyph unicode="&#xb3;" horiz-adv-x="606" d="M57 700l76 170q30 -49 139 -49q73 0 110.5 23.5t37.5 79.5q0 84 -74 84h-125l39 137h64q63 0 89.5 27.5t26.5 60.5q0 65 -82 65q-85 0 -127 -28l-4 125q25 21 81 36t102 15q62 0 106.5 -16.5t67 -44.5t32 -56.5t9.5 -60.5q0 -61 -26.5 -114t-47.5 -69q3 -8 16 -35.5 t20 -53.5t7 -58q0 -93 -51.5 -163t-127.5 -103t-161 -33q-63 0 -125.5 22t-71.5 39z" />
<glyph unicode="&#xb4;" horiz-adv-x="583" d="M324 1204l24 131l393 189l-34 -193z" />
<glyph unicode="&#xb5;" horiz-adv-x="1208" d="M-41 -496l266 1514h234l-97 -545q-12 -73 -12 -129q0 -168 154 -168q116 0 203 96l133 746h231l-117 -668q-14 -77 -14 -121q0 -34 16 -46.5t50 -12.5h32l-55 -190h-82q-150 0 -188 120q-52 -52 -123.5 -85t-138.5 -33q-108 0 -168 45l-90 -523h-234z" />
<glyph unicode="&#xb6;" horiz-adv-x="1218" d="M125 893q0 78 26.5 155t81 146.5t130 123t180.5 85t225 31.5h502l-33 -195h-135l-219 -1239h-162l217 1239h-125l-219 -1239h-129l86 477q-106 7 -189.5 44.5t-134 96t-76.5 128.5t-26 147z" />
<glyph unicode="&#xb7;" horiz-adv-x="473" d="M86 436l47 266h240l-47 -266h-240z" />
<glyph unicode="&#xb8;" horiz-adv-x="581" d="M180 -395l182 270l197 16l-237 -272z" />
<glyph unicode="&#xb9;" horiz-adv-x="444" d="M147 655l93 519q-36 -7 -78 -9l20 144q27 0 79 41t63 80h143l-137 -775h-183z" />
<glyph unicode="&#xba;" horiz-adv-x="747" d="M162 1145q0 138 104.5 244t261.5 106q123 0 191.5 -74t68.5 -182q0 -138 -104 -244t-262 -106q-122 0 -191 74t-69 182zM362 1157q0 -52 23 -86.5t64 -34.5q59 0 99 57.5t40 133.5q0 52 -22.5 86.5t-63.5 34.5q-59 0 -99.5 -58t-40.5 -133z" />
<glyph unicode="&#xbb;" horiz-adv-x="1183" d="M2 160l367 422l-217 422h274l217 -422l-367 -422h-274zM504 160l364 422l-217 422h277l217 -422l-367 -422h-274z" />
<glyph unicode="&#xbc;" horiz-adv-x="1433" d="M-10 -174l991 1608h252l-989 -1608h-254zM180 655l92 519q-36 -7 -77 -9l20 144q27 0 78.5 41t62.5 80h144l-138 -775h-182zM680 211l461 563h157l-75 -426h94l-23 -137h-94l-39 -211h-180l37 211h-338zM934 348h108l31 176z" />
<glyph unicode="&#xbd;" horiz-adv-x="1431" d="M-14 -174l991 1608h252l-989 -1608h-254zM176 655l92 519q-36 -7 -78 -9l21 144q27 0 78.5 41t62.5 80h144l-138 -775h-182zM756 0q175 203 263 318.5t114 167t26 94.5q0 69 -61 69q-45 0 -92 -30t-71 -57.5t-38 -49.5v166q36 46 105.5 79.5t152.5 33.5q95 0 136.5 -50 t41.5 -118q0 -78 -53.5 -177.5t-179.5 -261.5h186l-35 -184h-495z" />
<glyph unicode="&#xbe;" horiz-adv-x="1755" d="M84 700l76 170q30 -49 139 -49q73 0 110 23.5t37 79.5q0 84 -73 84h-125l39 137h63q63 0 90 27.5t27 60.5q0 65 -82 65q-85 0 -127 -28l-4 125q25 21 80.5 36t101.5 15q62 0 106.5 -16.5t67 -44.5t32 -56.5t9.5 -60.5q0 -62 -26 -114.5t-47 -68.5q3 -8 16 -35.5t20 -53.5 t7 -58q0 -93 -51.5 -163t-127.5 -103t-161 -33q-63 0 -125.5 22t-71.5 39zM301 -174l991 1608h252l-989 -1608h-254zM999 211l461 563h158l-76 -426h94l-22 -137h-94l-39 -211h-181l37 211h-338zM1253 348h109l31 176z" />
<glyph unicode="&#xbf;" horiz-adv-x="874" d="M-27 -174q0 66 28.5 133.5t72.5 122.5t96.5 117.5t100 118t84.5 125t48 137.5l7 34h157q-9 -93 -12 -104q-13 -75 -55.5 -149.5t-92.5 -134t-98.5 -119.5t-81 -130t-32.5 -141q0 -83 46 -125.5t121 -42.5q77 0 145.5 39t117.5 96l24 -172q-59 -69 -148.5 -106t-185.5 -37 q-70 0 -128 20.5t-97 54t-66 78t-39 91t-12 94.5zM403 795l41 229h234l-41 -229h-234z" />
<glyph unicode="&#xc0;" d="M-82 0l733 1434h232l227 -1434h-252l-53 358h-457l-178 -358h-252zM471 588h291l-62 477zM643 1747l33 192l328 -188l-23 -131z" />
<glyph unicode="&#xc1;" d="M-82 0l733 1434h232l227 -1434h-252l-53 358h-457l-178 -358h-252zM471 588h291l-62 477zM621 1620l24 131l393 188l-34 -192z" />
<glyph unicode="&#xc2;" d="M-82 0l733 1434h232l227 -1434h-252l-53 358h-457l-178 -358h-252zM471 588h291l-62 477zM518 1626l23 127l317 195l248 -195l-23 -127l-254 152z" />
<glyph unicode="&#xc3;" d="M-82 0l733 1434h232l227 -1434h-252l-53 358h-457l-178 -358h-252zM449 1671q27 95 107.5 148t164.5 53q48 0 86.5 -22.5t69.5 -45t61 -22.5q41 0 78 29.5t51 68.5l133 -33q-28 -87 -98.5 -146t-163.5 -59q-34 0 -67.5 14.5t-56.5 32t-52 32t-53 14.5q-41 0 -70 -29 t-45 -70zM471 588h291l-62 477z" />
<glyph unicode="&#xc4;" d="M-82 0l733 1434h232l227 -1434h-252l-53 358h-457l-178 -358h-252zM471 588h291l-62 477zM563 1636l37 213h182l-37 -213h-182zM858 1636l37 213h184l-39 -213h-182z" />
<glyph unicode="&#xc5;" d="M-82 0l733 1434h232l227 -1434h-252l-53 358h-457l-178 -358h-252zM471 588h291l-62 477zM623 1751q0 85 67.5 148t167.5 63q81 0 126.5 -45t45.5 -113q0 -85 -66 -147t-169 -62q-80 0 -126 45t-46 111zM737 1759q0 -35 20 -56.5t52 -21.5q44 0 75 32t31 81 q0 35 -20.5 57.5t-52.5 22.5q-42 0 -73.5 -33t-31.5 -82z" />
<glyph unicode="&#xc6;" horiz-adv-x="1691" d="M-113 0l912 1434h950l-41 -230h-573l-60 -342h443l-41 -229h-443l-71 -404h591l-41 -229h-839l61 352h-377l-221 -352h-250zM510 586h268l107 612z" />
<glyph unicode="&#xc7;" horiz-adv-x="1198" d="M90 586q0 149 42 285t117.5 242.5t176.5 185.5t225 121t256 42q99 0 198.5 -23.5t166.5 -60.5l-68 -227q-59 25 -97 39.5t-104.5 29.5t-128.5 15q-122 0 -222 -51.5t-163.5 -139.5t-98 -200.5t-34.5 -237.5q0 -190 82.5 -298.5t257.5 -108.5q134 0 355 84l-13 -228 q-82 -38 -187.5 -61t-203.5 -23q-258 0 -407.5 163t-149.5 452zM264 -395l182 270l197 16l-237 -272z" />
<glyph unicode="&#xc8;" horiz-adv-x="1114" d="M55 0l252 1434h862l-41 -230h-614l-59 -342h477l-41 -229h-477l-72 -404h635l-41 -229h-881zM563 1747l33 192l328 -188l-23 -131z" />
<glyph unicode="&#xc9;" horiz-adv-x="1114" d="M55 0l252 1434h862l-41 -230h-614l-59 -342h477l-41 -229h-477l-72 -404h635l-41 -229h-881zM539 1620l24 131l393 188l-34 -192z" />
<glyph unicode="&#xca;" horiz-adv-x="1114" d="M55 0l252 1434h862l-41 -230h-614l-59 -342h477l-41 -229h-477l-72 -404h635l-41 -229h-881zM438 1626l23 127l317 195l248 -195l-22 -127l-254 152z" />
<glyph unicode="&#xcb;" horiz-adv-x="1114" d="M55 0l252 1434h862l-41 -230h-614l-59 -342h477l-41 -229h-477l-72 -404h635l-41 -229h-881zM483 1636l37 213h182l-36 -213h-183zM778 1636l37 213h184l-38 -213h-183z" />
<glyph unicode="&#xcc;" horiz-adv-x="563" d="M55 0l252 1434h242l-252 -1434h-242zM307 1747l33 192l328 -188l-23 -131z" />
<glyph unicode="&#xcd;" horiz-adv-x="563" d="M55 0l252 1434h242l-252 -1434h-242zM283 1620l24 131l393 188l-34 -192z" />
<glyph unicode="&#xce;" horiz-adv-x="563" d="M55 0l252 1434h242l-252 -1434h-242zM182 1626l23 127l317 195l248 -195l-22 -127l-254 152z" />
<glyph unicode="&#xcf;" horiz-adv-x="563" d="M55 0l252 1434h242l-252 -1434h-242zM227 1636l37 213h182l-36 -213h-183zM522 1636l37 213h184l-38 -213h-183z" />
<glyph unicode="&#xd0;" horiz-adv-x="1443" d="M12 621l31 174h178l113 639h504q254 0 404.5 -154.5t150.5 -423.5q0 -192 -64 -354t-173.5 -271t-257 -170t-314.5 -61h-502l108 621h-178zM360 229h265q160 0 274.5 80t170.5 215t56 310q0 174 -83 273t-246 99h-265l-71 -411h237l-30 -174h-238z" />
<glyph unicode="&#xd1;" horiz-adv-x="1388" d="M55 0l252 1434h242l412 -971l172 971h241l-254 -1434h-198l-443 1030l-182 -1030h-242zM522 1671q19 64 65.5 111t100.5 68.5t107 21.5q48 0 86.5 -22.5t69.5 -45t61 -22.5q41 0 78 29.5t51 68.5l133 -33q-28 -87 -98.5 -146t-163.5 -59q-34 0 -68 14.5t-57 32t-52 32 t-53 14.5q-40 0 -69 -29t-45 -70z" />
<glyph unicode="&#xd2;" horiz-adv-x="1501" d="M90 584q0 185 65 349t174 279.5t256.5 182.5t309.5 67q258 0 407.5 -163t149.5 -449q0 -185 -65 -349.5t-174 -280t-256.5 -182.5t-309.5 -67q-258 0 -407.5 163.5t-149.5 449.5zM356 604q0 -188 82.5 -296.5t247.5 -108.5q150 0 266 90t175 232.5t59 307.5 q0 189 -82.5 297.5t-247.5 108.5q-150 0 -266 -90.5t-175 -233t-59 -307.5zM772 1747l33 192l328 -188l-23 -131z" />
<glyph unicode="&#xd3;" horiz-adv-x="1501" d="M90 584q0 185 65 349t174 279.5t256.5 182.5t309.5 67q258 0 407.5 -163t149.5 -449q0 -185 -65 -349.5t-174 -280t-256.5 -182.5t-309.5 -67q-258 0 -407.5 163.5t-149.5 449.5zM356 604q0 -188 82.5 -296.5t247.5 -108.5q150 0 266 90t175 232.5t59 307.5 q0 189 -82.5 297.5t-247.5 108.5q-150 0 -266 -90.5t-175 -233t-59 -307.5zM750 1620l24 131l393 188l-34 -192z" />
<glyph unicode="&#xd4;" horiz-adv-x="1501" d="M90 584q0 185 65 349t174 279.5t256.5 182.5t309.5 67q258 0 407.5 -163t149.5 -449q0 -185 -65 -349.5t-174 -280t-256.5 -182.5t-309.5 -67q-258 0 -407.5 163.5t-149.5 449.5zM356 604q0 -188 82.5 -296.5t247.5 -108.5q150 0 266 90t175 232.5t59 307.5 q0 189 -82.5 297.5t-247.5 108.5q-150 0 -266 -90.5t-175 -233t-59 -307.5zM649 1626l23 127l317 195l248 -195l-23 -127l-253 152z" />
<glyph unicode="&#xd5;" horiz-adv-x="1501" d="M90 584q0 185 65 349t174 279.5t256.5 182.5t309.5 67q258 0 407.5 -163t149.5 -449q0 -185 -65 -349.5t-174 -280t-256.5 -182.5t-309.5 -67q-258 0 -407.5 163.5t-149.5 449.5zM356 604q0 -188 82.5 -296.5t247.5 -108.5q150 0 266 90t175 232.5t59 307.5 q0 189 -82.5 297.5t-247.5 108.5q-150 0 -266 -90.5t-175 -233t-59 -307.5zM580 1671q27 95 107.5 148t164.5 53q48 0 86.5 -22.5t69.5 -45t61 -22.5q41 0 78 29.5t51 68.5l133 -33q-28 -87 -98.5 -146t-163.5 -59q-34 0 -67.5 14.5t-56.5 32t-52 32t-53 14.5q-41 0 -70 -29 t-45 -70z" />
<glyph unicode="&#xd6;" horiz-adv-x="1501" d="M90 584q0 185 65 349t174 279.5t256.5 182.5t309.5 67q258 0 407.5 -163t149.5 -449q0 -185 -65 -349.5t-174 -280t-256.5 -182.5t-309.5 -67q-258 0 -407.5 163.5t-149.5 449.5zM356 604q0 -188 82.5 -296.5t247.5 -108.5q150 0 266 90t175 232.5t59 307.5 q0 189 -82.5 297.5t-247.5 108.5q-150 0 -266 -90.5t-175 -233t-59 -307.5zM694 1636l37 213h182l-36 -213h-183zM989 1636l37 213h184l-39 -213h-182z" />
<glyph unicode="&#xd7;" horiz-adv-x="884" d="M74 338l248 229l-168 230l133 108l168 -229l250 229l94 -108l-250 -230l170 -229l-135 -109l-168 230l-248 -230z" />
<glyph unicode="&#xd8;" horiz-adv-x="1503" d="M0 -63l197 233q-105 154 -105 403q0 192 65 359t175 282.5t259 181.5t314 66q167 0 289 -73l63 77h252l-166 -198q52 -75 81.5 -183t29.5 -227q0 -191 -65 -357.5t-174.5 -281.5t-258.5 -180.5t-313 -65.5q-177 0 -301 78l-90 -114h-252zM358 594q0 -117 25 -209l643 807 q-71 41 -162 41q-117 0 -214 -51.5t-160 -139.5t-97.5 -203.5t-34.5 -244.5zM512 244q66 -41 170 -41q118 0 215 51.5t160 139.5t97 204.5t34 247.5q0 134 -29 211z" />
<glyph unicode="&#xd9;" horiz-adv-x="1409" d="M131 430q0 91 16 182l146 822h239l-129 -732q-20 -114 -20 -210q2 -140 58 -216.5t192 -76.5q77 0 139.5 27t105 71.5t75.5 111.5t52.5 136.5t34.5 156.5l129 732h242l-145 -822q-54 -302 -224.5 -471.5t-447.5 -169.5q-230 0 -346.5 119.5t-116.5 339.5zM727 1747 l33 192l327 -188l-22 -131z" />
<glyph unicode="&#xda;" horiz-adv-x="1409" d="M131 430q0 91 16 182l146 822h239l-129 -732q-20 -114 -20 -210q2 -140 58 -216.5t192 -76.5q77 0 139.5 27t105 71.5t75.5 111.5t52.5 136.5t34.5 156.5l129 732h242l-145 -822q-54 -302 -224.5 -471.5t-447.5 -169.5q-230 0 -346.5 119.5t-116.5 339.5zM702 1620 l25 131l393 188l-35 -192z" />
<glyph unicode="&#xdb;" horiz-adv-x="1409" d="M131 430q0 91 16 182l146 822h239l-129 -732q-20 -114 -20 -210q2 -140 58 -216.5t192 -76.5q77 0 139.5 27t105 71.5t75.5 111.5t52.5 136.5t34.5 156.5l129 732h242l-145 -822q-54 -302 -224.5 -471.5t-447.5 -169.5q-230 0 -346.5 119.5t-116.5 339.5zM602 1626 l23 127l317 195l248 -195l-23 -127l-254 152z" />
<glyph unicode="&#xdc;" horiz-adv-x="1409" d="M131 430q0 91 16 182l146 822h239l-129 -732q-20 -114 -20 -210q2 -140 58 -216.5t192 -76.5q77 0 139.5 27t105 71.5t75.5 111.5t52.5 136.5t34.5 156.5l129 732h242l-145 -822q-54 -302 -224.5 -471.5t-447.5 -169.5q-230 0 -346.5 119.5t-116.5 339.5zM649 1636 l37 213h182l-37 -213h-182zM944 1636l37 213h184l-39 -213h-182z" />
<glyph unicode="&#xdd;" horiz-adv-x="1200" d="M152 1434h256l233 -580l428 580h256l-604 -791l-115 -643h-241l112 643zM590 1620l24 131l394 188l-35 -192z" />
<glyph unicode="&#xde;" horiz-adv-x="1114" d="M55 0l252 1434h244l-47 -275h90q106 0 180 -6t142 -23.5t108.5 -48.5t64 -82t23.5 -122q0 -258 -154 -366t-497 -108h-92l-72 -403h-242zM399 573h156q91 0 153 19.5t94.5 56.5t46 81.5t13.5 103.5q0 80 -53.5 115.5t-179.5 35.5h-158z" />
<glyph unicode="&#xdf;" horiz-adv-x="1107" d="M23 -279l196 1121h-137l53 182h117l20 121q20 115 95.5 207t171.5 138t188 46q54 0 108 -18.5t101.5 -54.5t77.5 -98.5t30 -141.5q0 -77 -24 -148t-58 -120t-67.5 -88.5t-57.5 -69.5t-24 -47q0 -18 20 -44.5t48.5 -58.5t57.5 -71t49 -96t20 -120q0 -103 -40.5 -180.5 t-111 -122.5t-156 -66.5t-184.5 -21.5q-58 0 -110 8l28 170q77 1 124 4.5t91.5 14.5t67 32t36 56t13.5 86q0 52 -20.5 100t-50 84t-58.5 69t-49.5 67t-20.5 65q0 29 19 60.5t47 59.5t61 65.5t61 76t47 93.5t19 116q0 78 -37 114t-94 36q-71 0 -121.5 -53.5t-64.5 -137.5 l-254 -1434h-227z" />
<glyph unicode="&#xe0;" horiz-adv-x="1169" d="M39 414q0 94 25.5 185t75.5 169.5t118 138.5t159.5 94.5t194.5 34.5q144 0 215 -88l33 70h211l-119 -705q-8 -44 -8 -77q0 -42 19.5 -54t78.5 -12l-55 -190q-139 0 -192 22.5t-86 103.5q-122 -126 -299 -126q-170 0 -270.5 121.5t-100.5 312.5zM281 432 q0 -119 49.5 -188.5t152.5 -69.5q74 0 131.5 37t90.5 98t50 132t17 147q0 252 -182 252q-134 0 -221.5 -119.5t-87.5 -288.5zM610 1331l33 193l328 -189l-23 -131z" />
<glyph unicode="&#xe1;" horiz-adv-x="1169" d="M39 414q0 94 25.5 185t75.5 169.5t118 138.5t159.5 94.5t194.5 34.5q144 0 215 -88l33 70h211l-119 -705q-8 -44 -8 -77q0 -42 19.5 -54t78.5 -12l-55 -190q-139 0 -192 22.5t-86 103.5q-122 -126 -299 -126q-170 0 -270.5 121.5t-100.5 312.5zM281 432 q0 -119 49.5 -188.5t152.5 -69.5q74 0 131.5 37t90.5 98t50 132t17 147q0 252 -182 252q-134 0 -221.5 -119.5t-87.5 -288.5zM586 1204l24 131l394 189l-35 -193z" />
<glyph unicode="&#xe2;" horiz-adv-x="1169" d="M39 414q0 94 25.5 185t75.5 169.5t118 138.5t159.5 94.5t194.5 34.5q144 0 215 -88l33 70h211l-119 -705q-8 -44 -8 -77q0 -42 19.5 -54t78.5 -12l-55 -190q-139 0 -192 22.5t-86 103.5q-122 -126 -299 -126q-170 0 -270.5 121.5t-100.5 312.5zM281 432 q0 -119 49.5 -188.5t152.5 -69.5q74 0 131.5 37t90.5 98t50 132t17 147q0 252 -182 252q-134 0 -221.5 -119.5t-87.5 -288.5zM485 1210l23 127l317 195l248 -195l-22 -127l-254 152z" />
<glyph unicode="&#xe3;" horiz-adv-x="1169" d="M39 414q0 94 25.5 185t75.5 169.5t118 138.5t159.5 94.5t194.5 34.5q144 0 215 -88l33 70h211l-119 -705q-8 -44 -8 -77q0 -42 19.5 -54t78.5 -12l-55 -190q-139 0 -192 22.5t-86 103.5q-122 -126 -299 -126q-170 0 -270.5 121.5t-100.5 312.5zM281 432 q0 -119 49.5 -188.5t152.5 -69.5q74 0 131.5 37t90.5 98t50 132t17 147q0 252 -182 252q-134 0 -221.5 -119.5t-87.5 -288.5zM412 1255q27 95 107.5 148t164.5 53q48 0 86.5 -22.5t69.5 -45t61 -22.5q41 0 78 29.5t51 68.5l133 -32q-28 -87 -98.5 -146t-163.5 -59 q-42 0 -84 23t-78.5 46t-66.5 23q-41 0 -70 -28.5t-45 -69.5z" />
<glyph unicode="&#xe4;" horiz-adv-x="1169" d="M39 414q0 94 25.5 185t75.5 169.5t118 138.5t159.5 94.5t194.5 34.5q144 0 215 -88l33 70h211l-119 -705q-8 -44 -8 -77q0 -42 19.5 -54t78.5 -12l-55 -190q-139 0 -192 22.5t-86 103.5q-122 -126 -299 -126q-170 0 -270.5 121.5t-100.5 312.5zM281 432 q0 -119 49.5 -188.5t152.5 -69.5q74 0 131.5 37t90.5 98t50 132t17 147q0 252 -182 252q-134 0 -221.5 -119.5t-87.5 -288.5zM532 1221l37 213h183l-37 -213h-183zM827 1221l37 213h185l-39 -213h-183z" />
<glyph unicode="&#xe5;" horiz-adv-x="1169" d="M39 414q0 94 25.5 185t75.5 169.5t118 138.5t159.5 94.5t194.5 34.5q144 0 215 -88l33 70h211l-119 -705q-8 -44 -8 -77q0 -42 19.5 -54t78.5 -12l-55 -190q-139 0 -192 22.5t-86 103.5q-122 -126 -299 -126q-170 0 -270.5 121.5t-100.5 312.5zM281 432 q0 -119 49.5 -188.5t152.5 -69.5q74 0 131.5 37t90.5 98t50 132t17 147q0 252 -182 252q-134 0 -221.5 -119.5t-87.5 -288.5zM592 1335q0 85 67.5 148t167.5 63q82 0 127 -44.5t45 -112.5q0 -85 -66 -147t-169 -62q-80 0 -126 44.5t-46 110.5zM707 1343q0 -35 19.5 -56 t51.5 -21q44 0 75.5 32t31.5 80q0 35 -21 57.5t-53 22.5q-42 0 -73 -33t-31 -82z" />
<glyph unicode="&#xe6;" horiz-adv-x="1550" d="M-16 203q0 74 23.5 136t61.5 105t92.5 77t108.5 54.5t118 34.5t114 20t102 9q0 111 -26.5 153t-118.5 42q-115 0 -275 -72l13 186q193 88 360 88q116 0 180.5 -44t75.5 -158q40 88 144.5 145t228.5 57q143 0 228 -93.5t85 -252.5q0 -94 -47 -219h-616q0 -55 2 -80 q12 -109 73 -165t152 -56q67 0 153.5 23t153.5 57l-18 -191q-154 -79 -336 -79q-144 0 -232 52.5t-116 151.5q-177 -215 -416 -215q-130 0 -199 62.5t-69 171.5zM233 252q0 -46 28.5 -72t72.5 -26q35 0 73 16t74 46t64 81t39 115q2 12 4 34t4 35q-58 -1 -117 -14t-115 -38.5 t-91.5 -71.5t-35.5 -105zM870 629h414q4 23 4 63q0 68 -35 108t-110 40q-90 0 -163.5 -56t-109.5 -155z" />
<glyph unicode="&#xe7;" horiz-adv-x="884" d="M41 410q0 122 39 234t111.5 199.5t186 140t251.5 52.5q165 0 264 -71l-59 -201q-105 76 -226 76q-150 0 -237.5 -116t-87.5 -290q0 -260 209 -260q117 0 253 76l-14 -195q-121 -75 -285 -75q-106 0 -185.5 33.5t-126.5 93t-70 135.5t-23 168zM164 -395l182 270l197 16 l-238 -272z" />
<glyph unicode="&#xe8;" horiz-adv-x="980" d="M39 418q0 118 41 229.5t113 197.5t180 138.5t233 52.5q155 0 239.5 -77t84.5 -207q0 -161 -131.5 -249.5t-352.5 -88.5q-95 0 -163 14q6 -135 73 -194.5t170 -59.5q66 0 154 22t154 54l-23 -193q-158 -77 -334 -77q-216 0 -327 121.5t-111 316.5zM303 580q50 -13 111 -13 q169 0 242 49t73 119q0 32 -13.5 54t-36 32.5t-43 14.5t-42.5 4q-104 0 -180 -76.5t-111 -183.5zM455 1331l32 193l328 -189l-22 -131z" />
<glyph unicode="&#xe9;" horiz-adv-x="980" d="M39 418q0 118 41 229.5t113 197.5t180 138.5t233 52.5q155 0 239.5 -77t84.5 -207q0 -161 -131.5 -249.5t-352.5 -88.5q-95 0 -163 14q6 -135 73 -194.5t170 -59.5q66 0 154 22t154 54l-23 -193q-158 -77 -334 -77q-216 0 -327 121.5t-111 316.5zM303 580q50 -13 111 -13 q169 0 242 49t73 119q0 32 -13.5 54t-36 32.5t-43 14.5t-42.5 4q-104 0 -180 -76.5t-111 -183.5zM432 1204l25 131l393 189l-35 -193z" />
<glyph unicode="&#xea;" horiz-adv-x="980" d="M39 418q0 118 41 229.5t113 197.5t180 138.5t233 52.5q155 0 239.5 -77t84.5 -207q0 -161 -131.5 -249.5t-352.5 -88.5q-95 0 -163 14q6 -135 73 -194.5t170 -59.5q66 0 154 22t154 54l-23 -193q-158 -77 -334 -77q-216 0 -327 121.5t-111 316.5zM303 580q50 -13 111 -13 q169 0 242 49t73 119q0 32 -13.5 54t-36 32.5t-43 14.5t-42.5 4q-104 0 -180 -76.5t-111 -183.5zM330 1210l22 127l318 195l248 -195l-23 -127l-254 152z" />
<glyph unicode="&#xeb;" horiz-adv-x="980" d="M39 418q0 118 41 229.5t113 197.5t180 138.5t233 52.5q155 0 239.5 -77t84.5 -207q0 -161 -131.5 -249.5t-352.5 -88.5q-95 0 -163 14q6 -135 73 -194.5t170 -59.5q66 0 154 22t154 54l-23 -193q-158 -77 -334 -77q-216 0 -327 121.5t-111 316.5zM303 580q50 -13 111 -13 q169 0 242 49t73 119q0 32 -13.5 54t-36 32.5t-43 14.5t-42.5 4q-104 0 -180 -76.5t-111 -183.5zM375 1221l37 213h182l-37 -213h-182zM670 1221l37 213h184l-39 -213h-182z" />
<glyph unicode="&#xec;" horiz-adv-x="481" d="M18 0l179 1018h233l-178 -1018h-234zM193 1331l32 193l328 -189l-23 -131z" />
<glyph unicode="&#xed;" horiz-adv-x="481" d="M18 0l179 1018h233l-178 -1018h-234zM168 1204l25 131l393 189l-35 -193z" />
<glyph unicode="&#xee;" horiz-adv-x="481" d="M18 0l179 1018h233l-178 -1018h-234zM66 1210l22 127l318 195l247 -195l-22 -127l-254 152z" />
<glyph unicode="&#xef;" horiz-adv-x="481" d="M18 0l179 1018h233l-178 -1018h-234zM113 1221l37 213h182l-37 -213h-182zM408 1221l36 213h185l-39 -213h-182z" />
<glyph unicode="&#xf0;" horiz-adv-x="1013" d="M6 346q0 90 35 182t96.5 169t157.5 126t207 49q127 0 213 -90q0 91 -18.5 194t-57.5 140q-140 -103 -285 -121l-49 140q105 3 250 94q-93 104 -211 104l96 103q147 -3 262 -109q96 85 132 129l118 -31q-82 -102 -166 -186q67 -92 106.5 -239t39.5 -306q0 -164 -36.5 -293 t-93.5 -207.5t-133.5 -130t-149.5 -71t-148 -19.5q-162 0 -263.5 104.5t-101.5 268.5zM236 385q0 -94 44 -154.5t130 -60.5q47 0 93 20.5t84 58t61.5 99.5t23.5 137q0 93 -45 145t-131 52q-78 0 -138.5 -44.5t-91 -111.5t-30.5 -141z" />
<glyph unicode="&#xf1;" horiz-adv-x="1087" d="M18 0l179 1018h202l7 -76q60 49 119 71.5t134 22.5q160 0 241 -89.5t81 -250.5q0 -70 -113 -696h-233q108 619 108 666q0 91 -36.5 132.5t-116.5 41.5q-122 0 -209 -101l-131 -739h-232zM299 1255q27 95 107.5 148t164.5 53q48 0 86.5 -22.5t69.5 -45t61 -22.5 q41 0 78.5 29.5t51.5 68.5l133 -32q-28 -86 -99 -145.5t-164 -59.5q-42 0 -84 23t-78.5 46t-66.5 23q-41 0 -70 -28.5t-45 -69.5z" />
<glyph unicode="&#xf2;" horiz-adv-x="1103" d="M39 416q0 121 43.5 233.5t119.5 198t186 137t235 51.5q198 0 303.5 -123t105.5 -313q0 -121 -43.5 -233.5t-119 -198t-185.5 -137t-235 -51.5q-197 0 -303.5 122.5t-106.5 313.5zM279 434q0 -125 51 -192.5t151 -67.5q91 0 163 56t110.5 149t38.5 203q0 125 -52 191.5 t-151 66.5q-136 0 -223.5 -118t-87.5 -288zM500 1331l32 193l328 -189l-22 -131z" />
<glyph unicode="&#xf3;" horiz-adv-x="1103" d="M39 416q0 121 43.5 233.5t119.5 198t186 137t235 51.5q198 0 303.5 -123t105.5 -313q0 -121 -43.5 -233.5t-119 -198t-185.5 -137t-235 -51.5q-197 0 -303.5 122.5t-106.5 313.5zM279 434q0 -125 51 -192.5t151 -67.5q91 0 163 56t110.5 149t38.5 203q0 125 -52 191.5 t-151 66.5q-136 0 -223.5 -118t-87.5 -288zM475 1204l25 131l393 189l-35 -193z" />
<glyph unicode="&#xf4;" horiz-adv-x="1103" d="M39 416q0 121 43.5 233.5t119.5 198t186 137t235 51.5q198 0 303.5 -123t105.5 -313q0 -121 -43.5 -233.5t-119 -198t-185.5 -137t-235 -51.5q-197 0 -303.5 122.5t-106.5 313.5zM279 434q0 -125 51 -192.5t151 -67.5q91 0 163 56t110.5 149t38.5 203q0 125 -52 191.5 t-151 66.5q-136 0 -223.5 -118t-87.5 -288zM377 1210l22 127l318 195l248 -195l-23 -127l-254 152z" />
<glyph unicode="&#xf5;" horiz-adv-x="1103" d="M39 416q0 121 43.5 233.5t119.5 198t186 137t235 51.5q198 0 303.5 -123t105.5 -313q0 -121 -43.5 -233.5t-119 -198t-185.5 -137t-235 -51.5q-197 0 -303.5 122.5t-106.5 313.5zM279 434q0 -125 51 -192.5t151 -67.5q91 0 163 56t110.5 149t38.5 203q0 125 -52 191.5 t-151 66.5q-136 0 -223.5 -118t-87.5 -288zM307 1255q19 64 65.5 111t100.5 68.5t107 21.5q48 0 86.5 -22.5t69.5 -45t61 -22.5q41 0 78 29.5t51 68.5l133 -32q-28 -87 -98.5 -146t-163.5 -59q-42 0 -84 23t-79 46t-67 23q-76 0 -114 -98z" />
<glyph unicode="&#xf6;" horiz-adv-x="1103" d="M39 416q0 121 43.5 233.5t119.5 198t186 137t235 51.5q198 0 303.5 -123t105.5 -313q0 -121 -43.5 -233.5t-119 -198t-185.5 -137t-235 -51.5q-197 0 -303.5 122.5t-106.5 313.5zM279 434q0 -125 51 -192.5t151 -67.5q91 0 163 56t110.5 149t38.5 203q0 125 -52 191.5 t-151 66.5q-136 0 -223.5 -118t-87.5 -288zM422 1221l37 213h182l-37 -213h-182zM717 1221l37 213h184l-39 -213h-182z" />
<glyph unicode="&#xf7;" horiz-adv-x="1118" d="M92 481l33 178h885l-31 -178h-887zM334 41l43 244h233l-43 -244h-233zM475 850l43 244h234l-41 -244h-236z" />
<glyph unicode="&#xf8;" horiz-adv-x="1105" d="M39 416q0 121 44 234t120.5 199t188 137.5t239.5 51.5q67 0 129 -18l45 74h203l-97 -148q60 -60 92.5 -151t32.5 -193q0 -162 -73.5 -303.5t-210.5 -229t-308 -87.5q-72 0 -133 18l-45 -74h-198l94 150q-60 55 -91.5 146t-31.5 194zM281 424q0 -90 16 -150l344 570 q-24 6 -43 6q-140 0 -228.5 -123t-88.5 -303zM428 176q27 -6 49 -6q140 0 229 124t89 308q0 101 -19 143z" />
<glyph unicode="&#xf9;" horiz-adv-x="1081" d="M74 313q0 68 110 705h234q-107 -609 -107 -664q0 -176 154 -176q119 0 201 94l131 746h233l-178 -1018h-219l8 76q-64 -50 -120.5 -73t-133.5 -23q-155 0 -234 86.5t-79 246.5zM492 1331l32 193l328 -189l-23 -131z" />
<glyph unicode="&#xfa;" horiz-adv-x="1081" d="M74 313q0 68 110 705h234q-107 -609 -107 -664q0 -176 154 -176q119 0 201 94l131 746h233l-178 -1018h-219l8 76q-64 -50 -120.5 -73t-133.5 -23q-155 0 -234 86.5t-79 246.5zM467 1204l25 131l393 189l-35 -193z" />
<glyph unicode="&#xfb;" horiz-adv-x="1081" d="M74 313q0 68 110 705h234q-107 -609 -107 -664q0 -176 154 -176q119 0 201 94l131 746h233l-178 -1018h-219l8 76q-64 -50 -120.5 -73t-133.5 -23q-155 0 -234 86.5t-79 246.5zM367 1210l22 127l318 195l247 -195l-22 -127l-254 152z" />
<glyph unicode="&#xfc;" horiz-adv-x="1081" d="M74 313q0 68 110 705h234q-107 -609 -107 -664q0 -176 154 -176q119 0 201 94l131 746h233l-178 -1018h-219l8 76q-64 -50 -120.5 -73t-133.5 -23q-155 0 -234 86.5t-79 246.5zM414 1221l37 213h182l-37 -213h-182zM709 1221l36 213h185l-39 -213h-182z" />
<glyph unicode="&#xfd;" horiz-adv-x="1036" d="M-10 -496l313 557l-231 957h258l131 -686l373 686h260l-869 -1514h-235zM434 1204l25 131l393 189l-35 -193z" />
<glyph unicode="&#xfe;" horiz-adv-x="1128" d="M-70 -496l359 2032h233l-102 -588q111 88 248 88q126 0 215 -59t130.5 -154.5t41.5 -216.5t-40.5 -233.5t-113 -200t-183 -140t-239.5 -52.5q-74 0 -125 22t-92 68l-98 -566h-234zM317 412q0 -111 44.5 -176.5t134.5 -65.5q141 0 230 120.5t89 295.5q0 117 -51.5 185.5 t-147.5 68.5q-76 0 -134.5 -35.5t-93.5 -96.5t-53 -136t-18 -160z" />
<glyph unicode="&#xff;" horiz-adv-x="1036" d="M-10 -496l313 557l-231 957h258l131 -686l373 686h260l-869 -1514h-235zM379 1221l37 213h182l-37 -213h-182zM674 1221l37 213h184l-39 -213h-182z" />
<glyph unicode="&#x152;" horiz-adv-x="2074" d="M90 573q0 192 65 359t174.5 282.5t258.5 181.5t313 66q247 0 387 -159l25 131h819l-41 -230h-573l-60 -342h440l-40 -229h-441l-71 -404h589l-39 -229h-837l24 131q-201 -160 -444 -160q-249 0 -399 164t-150 438zM356 596q0 -180 82 -288.5t240 -108.5q117 0 214 52 t160 140t97.5 203.5t34.5 243.5q0 180 -82 288.5t-242 108.5q-117 0 -214 -52t-159.5 -140.5t-96.5 -203.5t-34 -243z" />
<glyph unicode="&#x153;" horiz-adv-x="1744" d="M39 416q0 163 73 304.5t209.5 228.5t307.5 87q116 0 202 -46.5t132 -131.5q151 178 376 178q161 0 258 -97t97 -261q0 -65 -11 -107t-36 -100h-625q0 -10 -1 -29t-1 -28q0 -67 21 -116.5t56.5 -76t75 -39t84.5 -12.5q67 0 156.5 23.5t155.5 56.5l-23 -197 q-150 -73 -334 -73q-268 0 -368 182q-78 -87 -180.5 -134.5t-221.5 -47.5q-97 0 -174 34t-126.5 93.5t-76 138t-26.5 170.5zM279 426q0 -117 51 -184.5t149 -67.5q138 0 227 120.5t89 293.5q0 113 -52.5 182.5t-146.5 69.5q-143 0 -230 -117.5t-87 -296.5zM1055 629h397 q6 36 6 57q0 68 -34 111t-113 43q-90 0 -155 -55t-101 -156z" />
<glyph unicode="&#x178;" horiz-adv-x="1200" d="M152 1434h256l233 -580l428 580h256l-604 -791l-115 -643h-241l112 643zM537 1636l36 213h183l-37 -213h-182zM831 1636l37 213h185l-39 -213h-183z" />
<glyph unicode="&#x2c6;" horiz-adv-x="860" d="M360 1210l23 127l317 195l248 -195l-22 -127l-254 152z" />
<glyph unicode="&#x2dc;" horiz-adv-x="1017" d="M371 1255q27 95 107.5 148t164.5 53q48 0 86.5 -22.5t69.5 -45t61 -22.5q41 0 78 29.5t51 68.5l133 -32q-28 -87 -98.5 -146t-163.5 -59q-42 0 -84 23t-78.5 46t-66.5 23q-41 0 -70 -28.5t-45 -69.5z" />
<glyph unicode="&#x2000;" horiz-adv-x="981" />
<glyph unicode="&#x2001;" horiz-adv-x="1962" />
<glyph unicode="&#x2002;" horiz-adv-x="981" />
<glyph unicode="&#x2003;" horiz-adv-x="1962" />
<glyph unicode="&#x2004;" horiz-adv-x="654" />
<glyph unicode="&#x2005;" horiz-adv-x="490" />
<glyph unicode="&#x2006;" horiz-adv-x="327" />
<glyph unicode="&#x2007;" horiz-adv-x="327" />
<glyph unicode="&#x2008;" horiz-adv-x="245" />
<glyph unicode="&#x2009;" horiz-adv-x="392" />
<glyph unicode="&#x200a;" horiz-adv-x="109" />
<glyph unicode="&#x2010;" horiz-adv-x="829" d="M92 475l35 189h596l-33 -189h-598z" />
<glyph unicode="&#x2011;" horiz-adv-x="829" d="M92 475l35 189h596l-33 -189h-598z" />
<glyph unicode="&#x2012;" horiz-adv-x="829" d="M92 475l35 189h596l-33 -189h-598z" />
<glyph unicode="&#x2013;" horiz-adv-x="978" d="M92 475l35 189h747l-34 -189h-748z" />
<glyph unicode="&#x2014;" horiz-adv-x="1157" d="M92 475l35 189h924l-33 -189h-926z" />
<glyph unicode="&#x2018;" horiz-adv-x="415" d="M172 1073l43 238l225 225l43 -29l-94 -176l62 -20l-43 -238h-236z" />
<glyph unicode="&#x2019;" horiz-adv-x="380" d="M172 1102l96 176l-59 20l41 238h233l-41 -238l-225 -225z" />
<glyph unicode="&#x201a;" horiz-adv-x="466" d="M-25 -197l97 177l-62 20l43 238h234l-41 -238l-226 -225z" />
<glyph unicode="&#x201c;" horiz-adv-x="821" d="M172 1073l43 238l225 225l43 -29l-94 -176l62 -20l-43 -238h-236zM578 1073l43 238l223 225l45 -29l-94 -176l59 -20l-41 -238h-235z" />
<glyph unicode="&#x201d;" horiz-adv-x="786" d="M172 1102l96 176l-59 20l41 238h233l-41 -238l-225 -225zM578 1102l94 176l-60 20l41 238h236l-41 -238l-225 -225z" />
<glyph unicode="&#x201e;" horiz-adv-x="911" d="M-25 -197l97 177l-62 20l43 238h234l-41 -238l-226 -225zM420 -197l94 177l-59 20l41 238h235l-43 -238l-225 -225z" />
<glyph unicode="&#x2022;" horiz-adv-x="598" d="M78 537q0 102 78 179t176 77q76 0 125 -55t49 -136q0 -102 -78 -179t-176 -77q-76 0 -125 55t-49 136z" />
<glyph unicode="&#x2026;" horiz-adv-x="1376" d="M12 0l41 238h234l-43 -238h-232zM467 0l41 238h233l-41 -238h-233zM922 0l43 238h231l-41 -238h-233z" />
<glyph unicode="&#x202f;" horiz-adv-x="392" />
<glyph unicode="&#x2039;" horiz-adv-x="681" d="M29 582l368 422h277l-367 -422l219 -422h-276z" />
<glyph unicode="&#x203a;" horiz-adv-x="684" d="M2 160l369 422l-219 422h276l219 -422l-368 -422h-277z" />
<glyph unicode="&#x205f;" horiz-adv-x="490" />
<glyph unicode="&#x20ac;" horiz-adv-x="1370" d="M37 432l86 166h178q4 41 16 119l7 35h-174l79 155h142q93 228 276.5 360t403.5 132q197 0 333 -74l-65 -221q-82 39 -152 59.5t-155 20.5q-260 0 -387 -277h485l-84 -155h-455l-4 -35q-14 -72 -14 -119h465l-86 -166h-354q60 -182 270 -182q84 0 159.5 20t176.5 60 l-13 -221q-165 -74 -362 -74q-196 0 -327.5 105t-166.5 292h-278z" />
<glyph unicode="&#x2122;" horiz-adv-x="1439" d="M186 1292l27 142h537l-43 -142h-183l-106 -602h-150l107 602h-189zM610 690l226 744h92l121 -324l233 324h94l-37 -744h-155l33 469l-199 -276h-21l-98 278l-137 -471h-152z" />
<glyph unicode="&#x25fc;" horiz-adv-x="1013" d="M0 0v1014h1014v-1014h-1014z" />
</font>
</defs>
</svg>
